Loading...
 * Dettagli Torrent   globale  | Commenti (1) 


- Amici come noi (2014) [XviD - Italian Ac3 5.1 - Sub ita] MIRCrew -


Download via torrent:
Categoria bittorrent BDRip
Descrizione
Amici come noi (2014) [XviD - Italian Ac3 5.1 - Sub ita] MIRCrew






[center]

NO FOUND ONLY ORIGINAL RELEASE


Amici come noi (2014)





 



Titolo originale Amici come noi
Lingua originale Italiano
Paese di produzione Italia
Anno 2014
Durata 90 min
Rapporto 2.35 : 1
Genere commedia
Regia Enrico Lando
Soggetto Pio D'Antini, Amedeo Grieco, Fabio Di Credico, Aldo Augell
Sceneggiatura Pio D'Antini, Amedeo Grieco, Fabio Di Credico, Aldo Augelli
Produttore Pietro Valsecchi
Casa di produzione Taodue - Eat Movie
Distribuzione (Italia) Medusa Film
Fotografia Massimo Schiavon
Montaggio Pietro Morana
Musiche Andrea Guerra
Scenografia Sonia Peng
Costumi Marina Roberti




   Pio e Amedeo: loro stessi
   Alessandra Mastronardi: Rosa
   Massimo Popolizio: zio Ettore
   Maria Di Biase: Marika
   Mariela Garriga: Laura
   Mohamed Zouaoui: il pusher
   Alessandra Sarno: Stefania
   Nicola Valenzano: Giulio
   Giovanni Mancini: Mario
   Anna Rita Del Piano: Angela
   Monica Volpe: Floriana
   Mimmo Mancini: lo strozzino
   Manuela Spartà: Carmen
   Sara Brajovic: Alina
   Francesco Silvestre: il prete
   Valentina Melis
   Ale Baldi: il parroco






Pio e Amedeo sono due stretti amici nonché soci in affari di una particolare agenzia di pompe funebri. Pio sta per sposarsi con Rosa, ma qualche giorno prima delle nozze sul web circola un video piccante della sua futura sposa..



Amici Come Noi 2014 new movie from Enrico Lando with the stars Pio D'Antini, Amedeo Grieco, Alessandra Mastronardi on film Amici come noi (2014).....












[spoiler]
General
Complete name                            : Amici come Noi (2014).ita.sub.ita.MIRCrew\Amici come Noi (2014).ita.sub.ita.MIRCrew.avi
Format                                   : AVI
Format/Info                              : Audio Video Interleave
File size                                : 1.46 GiB
Duration                                 : 1h 29mn
Overall bit rate                         : 2 327 Kbps
Writing application                      : VirtualDubMod 1.5.4.1 (build 2178/release)
Writing library                          : VirtualDubMod build 2178/release

Video
ID                                       : 0
Format                                   : MPEG-4 Visual
Format profile                           : Advanced [email protected]
Format settings, BVOP                    : 1
Format settings, QPel                    : No
Format settings, GMC                     : No warppoints
Format settings, Matrix                  : Custom
Codec ID                                 : XVID
Codec ID/Hint                            : XviD
Duration                                 : 1h 29mn
Bit rate                                 : 1 872 Kbps
Width                                    : 720 pixels
Height                                   : 304 pixels
Display aspect ratio                     : 2.35:1
Frame rate                               : 25.000 fps
Color space                              : YUV
Chroma subsampling                       : 4:2:0
Bit depth                                : 8 bits
Scan type                                : Progressive
Compression mode                         : Lossy
Bits/(Pixel*Frame)                       : 0.342
Stream size                              : 1.17 GiB (80%)
Writing library                          : XviD 64

Audio
ID                                       : 1
Format                                   : AC-3
Format/Info                              : Audio Coding 3
Mode extension                           : CM (complete main)
Codec ID                                 : 2000
Duration                                 : 1h 29mn
Bit rate mode                            : Constant
Bit rate                                 : 448 Kbps
Channel(s)                               : 6 channels
Channel positions                        : Front: L C R, Side: L R, LFE
Sampling rate                            : 48.0 KHz
Bit depth                                : 16 bits
Compression mode                         : Lossy
Stream size                              : 287 MiB (19%)
Alignment                                : Split accross interleaves
Interleave, duration                     : 96 ms (2.40 video frames)
Interleave, preload duration             : 96 ms
Language                                 : Italian




[/spoiler]

[/center]
Info: Per scaricare devi usare un client come uTorrent o Transmission
AnnounceURL
udp://open.demonii.com:1337/announce
Hash 801c7cbb27458b4d541d6bcbaecd4f5d1028c7df
Peers seeds: 195 , leech: 126
Size 1.46 GB
Completato 1445x
Aggiunto 30.08.14 - 19:08:19
Uploader   robbyrs
Votazione (Voti: 0)


Condividi questo bittorrent:


html/blog:


bbcode/forum:




Aggiungi Commento
Ultimi commenti
avatar     
GRAZIE!!! Ottimo lavoro.
Audio&VIDEO 10
03/09 00.38
Tutti commenti (1)