* Dettagli Torrent   globale  | Commenti (1) 


- L Avvocato Del Diavolo (1997) [XviD - Italian English Ac3 5.1 - Sub Ita Eng] -


Download via torrent:
Categoria bittorrent BDRip
Descrizione
The Devil' s Advocate - L'Avvocato Del Diavolo (1997) [XviD - Italian English Ac3 5.1 - Sub Ita Eng] MIRCrew [TNT Village]





L'Avvocato Del Diavolo (1997) The devil' s advocate





Titolo originale The Devil's Advocate
Paese di produzione Stati Uniti
Anno 1997
Durata 144 min
Genere thriller/horror
Regia Taylor Hackford
Soggetto Andrew Neiderman
Sceneggiatura Tony Gilroy, Jonathan Lemkin
Produttore Arnold Kopelson, Anne Kopelson, Arnon Milchan
Fotografia Andrzej Bartkowiak
Montaggio Mark Warner
Musiche James Newton Howard, Mick Jagger, Keith Richards
Scenografia Bruno Rubeo





   Keanu Reeves: Kevin Lomax
   Al Pacino: John Milton / Satana
   Charlize Theron: Mary Ann
   Jeffrey Jones: Eddie Barzoon
   Judith Ivey: Sig.ra Alice Lomax
   Connie Nielsen: Christabella Andreoli
   Craig T. Nelson: Alexander Cullen
   Tamara Tunie: Sig.ra Jackie Heath
   Ruben Santiago-Hudson: Leamon Heath
   Debra Monk: Pam Garrety
   Vyto Ruginis: Mitch Weaver
   Laura Harrington: Sig.ra Melissa Black
   Pamela Gray: Sig.ra Diana Barzoon
   Heather Matarazzo: Barbara
   George Wyner: Meisel
   Leo Burmester: procuratore della Florida
   Chris Bauer: Lloyd Gettys
   Delroy Lindo: Phillipe Moyez
   Neal Jones: Larry
   James Saito: Takaori Osumi
   Monica Keena: Alessandra Cullen
   Vincent Laresca: ragazzo in metropolitana
   Roy Jones Jr.: pugile
   Paul Benedict: Walter Krasna
   George O. Gore II: ragazzo ad Harlem
   Don King: se stesso
   Al D'Amato: se stesso

Doppiatori italiani

   Giancarlo Giannini: John Milton
   Luca Ward: Kevin Lomax
   Claudia Catani: Mary Ann
   Paolo Buglioni: Eddie Barzoon
   Massimo Corvo: Alexander Cullen
   Emanuela Rossi: Christabella Andreoli
   Vittoria Febbi: Sig.ra Alice Lomax
   Sonia Scotti: Pam Garrety
   Glauco Onorato: Phillipe Moyez
   Massimo Rossi: Leamon Heath
   Maria Pia Di Meo: Sig.ra Jackie Heath
   Vittorio Stagni: Lloyd Gettys
   Sergio Di Giulio: Larry
   Antonella Rinaldi: Sig.ra Melissa Black
   Saverio Indrio: Mitch Weaver
   Claudia Pittelli: Barbara

Storyline

Kevin Lomax, a defense attorney in Gainesville, Florida, has never lost a case. He defends a schoolteacher, Mr. Gettys, against a charge of child molestation. During the trial, Kevin

realizes that his client is guilty, and a reporter tells him that a guilty verdict is all but inevitable. However, through a harsh cross-examination Kevin destroys the credibility of the

victim, Barbara, and secures another not guilty verdict.

As he celebrates, Kevin is approached by a representative of the New York law firm Milton, Chadwick & Waters, who offers him a large sum of money to help the firm with a jury selection.

After Kevin's jury delivers a not guilty verdict, John Milton (Al Pacino) offers him a large salary and a swanky apartment if he joins the firm. Despite warnings from his Evangelical

Christian mother, Alice, about sinful big city life, Kevin accepts the job and moves with his wife Mary Ann to Manhattan.







Kevin Lomax, un avvocato della Florida che non ha mai perso una causa, durante una pausa del processo ad un professore accusato di pedofilia, si reca ai servizi, dove prevede come sarebbe

il suo futuro se difendesse il professore che lui sa essere colpevole. Durante questa lunga riflessione vive il suo trasferimento a New York, a seguito dell'assunzione da parte del potente

studio legale Milton.

Giunto in città conosce il titolare dello studio, John Milton, un personaggio inquietante ma pieno di fascino, che dapprima gli assegna una causa di diritto sanitario e, dopo la sua

vittoria, un triplice omicidio che lo porterà verso una deriva personale che lo allontanerà dalla moglie Mary Ann, che lo condurrà a pensare sempre più al proprio successo e ad invaghirsi

di un'altra donna, mentre la moglie comincerà a soffrire di turbe psichiche (paranoia ed allucinazioni schizoidi) dopo avere assistito ad un susseguirsi di strani e di inquietanti

avvenimenti.............












General
Complete name                    : L'Avvocato Del Diavolo (1997) - The devil' s advocate.avi
Format                           : AVI
Format/Info                      : Audio Video Interleave
File size                        : 1.90 GiB
Duration                         : 2h 20mn
Overall bit rate                 : 1 936 Kbps
Writing application              : VirtualDubMod 1.5.4.1 (build 2178/release)
Writing library                  : VirtualDubMod build 2178/release

Video
ID                               : 0
Format                           : MPEG-4 Visual
Format profile                   : Advanced [email protected]
Format settings, BVOP            : Yes
Format settings, QPel            : No
Format settings, GMC             : No warppoints
Format settings, Matrix          : Custom
Codec ID                         : XVID
Codec ID/Hint                    : XviD
Duration                         : 2h 20mn
Bit rate                         : 1 172 Kbps
Width                            : 688 pixels
Height                           : 288 pixels
Display aspect ratio             : 2.35:1
Frame rate                       : 25.000 fps
Color space                      : YUV
Chroma subsampling               : 4:2:0
Bit depth                        : 8 bits
Scan type                        : Progressive
Bits/(Pixel*Frame)               : 0.237
Stream size                      : 1.15 GiB (61%)
Writing library                  : XviD 1.2.1 (UTC 2008-12-04)

Audio #1
ID                               : 1
Format                           : AC-3
Format/Info                      : Audio Coding 3
Mode extension                   : CM (complete main)
Codec ID                         : 2000
Duration                         : 2h 18mn
Bit rate mode                    : Constant
Bit rate                         : 384 Kbps
Channel(s)                       : 6 channels
Channel positions                : Front: L C R, Side: L R, LFE
Sampling rate                    : 48.0 KHz
Bit depth                        : 16 bits
Video delay                      : 8ms
Stream size                      : 379 MiB (19%)
Alignment                        : Split accross interleaves
Interleave, duration             : 98 ms (2.44 video frames)
Interleave, preload duration     : 96 ms
Language                         : Italian

Audio #2
ID                               : 2
Format                           : AC-3
Format/Info                      : Audio Coding 3
Mode extension                   : CM (complete main)
Codec ID                         : 2000
Duration                         : 2h 18mn
Bit rate mode                    : Constant
Bit rate                         : 384 Kbps
Channel(s)                       : 6 channels
Channel positions                : Front: L C R, Side: L R, LFE
Sampling rate                    : 48.0 KHz
Bit depth                        : 16 bits
Video delay                      : 8ms
Stream size                      : 380 MiB (20%)
Alignment                        : Split accross interleaves
Interleave, duration             : 98 ms (2.44 video frames)
Interleave, preload duration     : 96 ms
Language                         : English






Info: Per scaricare devi usare un client come uTorrent o Transmission
AnnounceURL
http://tracker.tntvillage.scambioetico.org:2710/announce
Hash e09edf13ab40db4c980d3d3b54ffd0e4fcbddaf2
Peers seeds: 98 , leech: 103
Size 1.93 GB
Completato 521x
Aggiunto 03.03.13 - 17:03:49
Uploader   robbyrs
Votazione (Voti: 0)


Condividi questo bittorrent:


html/blog:


bbcode/forum:




Aggiungi Commento
Ultimi commenti
  
bellooo seed please !!!!!!!!!!!!
03/03 21.00
Tutti commenti (1)