* Dettagli Torrent   globale  | Commenti (0) 


- 3 Supermen Contro Il Padrino (1980) [XviD - Italian Mp3] MIRCrew [TNT Village] -


Download via torrent:
Categoria bittorrent BDRip
Descrizione
3 Supermen Contro Il Padrino (1980) [XviD - Italian Mp3] MIRCrew [TNT Village]




3 Supermen Contro Il Padrino (1980)

 





Titolo originale Süpermenler
Lingua originale turco
Paese di produzione Italia, Spagna, Turchia
Anno 1979
Durata 87 min
Genere poliziesco - commedia
Regia Italo Martinenghi
Soggetto commedia, poliziesco, azione, fantascienza
Sceneggiatura Bitto Albertini, Tony Corti, Italo Martinenghi, Fuat Ozlüer, Erdogan Tünas
Produttore Türker Inanoglu
Casa di produzione Asbrell Productions, Barbatoja Film, Cinesecolo, Erler Film
Fotografia Çetin Gürtop, Aldo Ricci
Montaggio Italo Martinenghi
Musiche Nico Fidenco
Scenografia Francisco Rosella
Costumi Maria Luisa Pellizzon
Trucco Lamberto Biseo


 
   Cüneyt Arkin: Detective Murat (con il nome George Arkins)
   Güngör Bayrak:
   Salvatore Borghese:
   Aldo Canti: (con il nome Nick Jordan)
   Unsal Emre: (con il nome Ünsal Emre)
   Aldo Sambrell: Il Padrino / The Godfather
   Neriman Köksal:
   Turgut Özatay:
   Ali Sen:
   Andrea Guzon: (con il nome Andrea Gusson)
   Nejat Gürçen:
   Necip Tekce: (con il nome Necip Tekçe)
   Mesut Sürmeli:
   Süheyl Egriboz:
   Tony Corti: (con il nome Toni Corti)
   Sandra Scognamillo:
   Renan Fosforoglu:
   Hakki Kivanç:
   Kudret Karadag:
   Cándida López: (con il nome Candice Kay)
   Santiago Sánchez:









Trama:

I tre invincibili supermen (un agente segreto e due abilissimi ladri) lottano contro i mafiosi italo-americani che vogliono mettere le mani sulla macchina del tempo inventata dal professor Aristide Panzarotti. L'invenzione è danneggiata e, a complicare le cose, lo scienziato è finito all'ospedale con un vuoto di memoria. Torna il professor Panzarotti con la macchina del tempo già collaudata nel precedente .........





General
Complete name                    : 3 Supermen Contro Il Padrino (1980)\3 Supermen Contro Il Padrino (1980).avi
Format                           : AVI
Format/Info                      : Audio Video Interleave
File size                        : 702 MiB
Duration                         : 1h 22mn
Overall bit rate                 : 1 188 Kbps
Writing application              : VirtualDubMod 1.5.10.2 (build 2540/release)
Writing library                  : VirtualDubMod build 2540/release

Video
ID                               : 0
Format                           : MPEG-4 Visual
Format profile                   : Advanced [email protected]
Format settings, BVOP            : Yes
Format settings, QPel            : No
Format settings, GMC             : No warppoints
Format settings, Matrix          : Default (MPEG)
Codec ID                         : XVID
Codec ID/Hint                    : XviD
Duration                         : 1h 22mn
Bit rate                         : 1 044 Kbps
Width                            : 576 pixels
Height                           : 304 pixels
Display aspect ratio             : 1.895
Frame rate                       : 25.000 fps
Color space                      : YUV
Chroma subsampling               : 4:2:0
Bit depth                        : 8 bits
Scan type                        : Progressive
Bits/(Pixel*Frame)               : 0.239
Stream size                      : 617 MiB (88%)
Writing library                  : XviD 1.1.2 (UTC 2006-11-01)

Audio
ID                               : 1
Format                           : MPEG Audio
Format version                   : Version 1
Format profile                   : Layer 3
Mode                             : Joint stereo
Mode extension                   : MS Stereo
Codec ID                         : 55
Codec ID/Hint                    : MP3
Duration                         : 1h 22mn
Bit rate mode                    : Variable
Bit rate                         : 128 Kbps
Channel(s)                       : 2 channels
Sampling rate                    : 48.0 KHz
Stream size                      : 77.1 MiB (11%)
Alignment                        : Aligned on interleaves
Interleave, duration             : 24 ms (0.60 video frame)
Interleave, preload duration     : 300 ms
Writing library                  : LAME3.90.
Encoding settings                : -m j -V 4 -q 2 -lowpass 17.6 --abr 128


Info: Per scaricare devi usare un client come uTorrent o Transmission
AnnounceURL
http://tracker.tntvillage.scambioetico.org:2710/announce
Hash 1dc1d9c83ef1140d8f1cfba30e1497ea74a0f31d
Peers seeds: 22 , leech: 4
Size 701.95 MB
Completato 123x
Aggiunto 10.12.12 - 11:12:06
Uploader   robbyrs
Votazione (Voti: 0)


Condividi questo bittorrent:


html/blog:


bbcode/forum:




Aggiungi Commento