* Dettagli Torrent   globale  | Commenti (1) 


- Star Trek Picards 1x04-1080p.H264.ita.eng.Ac3-5.1.sub.ita.eng-MIRCrew -


Download via torrent:
Categoria bittorrent SerieTv
Descrizione
Star Trek Picard's 1x04-1080p.H264.ita.eng.Ac3-5.1.sub.ita.eng-MIRCrew





Dimensione file 1,00 Gb

Titolo originale Star Trek: Picard
Paese Stati Uniti d'America
Anno 2020 – in produzione
Formato serie TV
Genere fantascienza, drammatico, azione
Stagioni 1
Episodi 10
Lingua originale inglese

 



Star Trek: Picard è una serie televisiva statunitense del 2020 distribuita sul canale statunitense CBS.

La serie, facente parte dell'omonimo franchise, è ambientata alla fine del XXIV secolo, vent'anni dopo gli eventi di Star Trek - La nemesi.

Plot kept under wraps. Described as a follow-up series to Star Trek: The Next Generation (1987), and centers on Jean-Luc Picard (Sir Patrick Stewart) in the next chapter of his life.

Cast:

   Patrick Stewart: Jean-Luc Picard
   Santiago Cabrera: Cristobal "Chris" Rios
   Michelle Hurd: Raffi Musiker
   Evan Evagora: Elnor
   Alison Pill: Dr. Agnes Jurati
   Harry Treadaway: Narek
   Isa Briones: Dahj




General

Complete name                            : Star Trek Picard's 1x04 - L'assoluta verità.1080p.H284.ita.eng.Ac3 5.1.sub.ita.eng-MIRCrewStar Trek Picard's 1x04 - L'assoluta verità.1080p.H284.ita.eng.Ac3 5.1.sub.ita.eng-MIRCrew.mkv
Format                                   : Matroska
Format version                           : Version 2
File size                                : 1.07 GiB
Duration                                 : 44mn 6s
Overall bit rate                         : 3 465 Kbps
Movie name                               : MIRCrew
Encoded date                             : UTC 2020-02-14T14:22:59Z
Writing application                      : mkvmerge v5.8.0 ('No Sleep / Pillow&#39 built on Sep  2 2012 15:37:04
Writing library                          : Lavf55.12.0

Video
ID                                       : 1
Format                                   : AVC
Format/Info                              : Advanced Video Codec
Format profile                           : [email protected]
Format settings, CABAC                   : Yes
Format settings, ReFrames                : 4 frames
Codec ID                                 : V_MPEG4/ISO/AVC
Duration                                 : 44mn 6s
Bit rate                                 : 2 600 Kbps
Width                                    : 1 920 pixels
Height                                   : 800 pixels
Display aspect ratio                     : 2.40:1
Frame rate                               : 23.976 fps
Color space                              : YUV
Chroma subsampling                       : 4:2:0
Bit depth                                : 8 bits
Scan type                                : Progressive
Bits/(Pixel*Frame)                       : 0.071
Stream size                              : 789 MiB (72%)
Title                                    : MIRCrew
Writing library                          : x264 core 142 r2479 dd79a61
Encoding settings                        : cabac=1 / ref=1 / deblock=1:0:0 / analyse=0x1:0x111 / me=hex / subme=2 / psy=1 / psy_rd=1.00:0.00 / mixed_ref=0 / me_range=16 / chroma_me=1 / trellis=0 / 8x8dct=0 / cqm=0 / deadzone=21,11 / fast_pskip=1 / chroma_qp_offset=0 / threads=9 / lookahead_threads=3 / sliced_threads=0 / nr=0 / decimate=1 / interlaced=0 / bluray_compat=0 / constrained_intra=0 / bframes=3 / b_pyramid=2 / b_adapt=1 / b_bias=0 / direct=1 / weightb=1 / open_gop=0 / weightp=1 / keyint=240 / keyint_min=24 / scenecut=40 / intra_refresh=0 / rc_lookahead=10 / rc=abr / mbtree=1 / bitrate=2600 / ratetol=1.0 / qcomp=0.60 / qpmin=0 / qpmax=69 / qpstep=4 / vbv_maxrate=50000 / vbv_bufsize=62500 / nal_hrd=none / filler=0 / ip_ratio=1.40 / aq=1:1.00
Language                                 : Italian
Default                                  : Yes
Forced                                   : No
Color primaries                          : BT.709-5, BT.1361, IEC 61966-2-4, SMPTE RP177
Transfer characteristics                 : BT.709-5, BT.1361
Matrix coefficients                      : BT.709-5, BT.1361, IEC 61966-2-4 709, SMPTE RP177

Audio #1
ID                                       : 2
Format                                   : AC-3
Format/Info                              : Audio Coding 3
Mode extension                           : CM (complete main)
Codec ID                                 : A_AC3
Duration                                 : 44mn 6s
Bit rate mode                            : Constant
Bit rate                                 : 448 Kbps
Channel(s)                               : 6 channels
Channel positions                        : Front: L C R, Side: L R, LFE
Sampling rate                            : 48.0 KHz
Bit depth                                : 16 bits
Compression mode                         : Lossy
Delay relative to video                  : -5ms
Stream size                              : 141 MiB (13%)
Title                                    : Ita Ac3 5.1
Language                                 : Italian
Default                                  : Yes
Forced                                   : No

Audio #2
ID                                       : 3
Format                                   : AC-3
Format/Info                              : Audio Coding 3
Mode extension                           : CM (complete main)
Codec ID                                 : A_AC3
Duration                                 : 44mn 6s
Bit rate mode                            : Constant
Bit rate                                 : 448 Kbps
Channel(s)                               : 6 channels
Channel positions                        : Front: L C R, Side: L R, LFE
Sampling rate                            : 48.0 KHz
Bit depth                                : 16 bits
Compression mode                         : Lossy
Delay relative to video                  : -5ms
Stream size                              : 141 MiB (13%)
Title                                    : Eng Ac3 5.1
Language                                 : English
Default                                  : No
Forced                                   : No




Info: Per scaricare devi usare un client come uTorrent o Transmission
AnnounceURL
udp://tracker.coppersurfer.tk:6969/announce
Hash 99b91748e6c5bcb8f6d060de17631ae4083941f7
Peers seeds: 39 , leech: 2
Size 1.07 GB
Completato 1305x
Aggiunto 14.02.20 - 22:02:54
Uploader   robbyrs
Votazione (Voti: 0)


Condividi questo bittorrent:


html/blog:


bbcode/forum:




Aggiungi Commento
Ultimi commenti
 jackal98jackal98   
Grazie
15/02 18.09
Tutti commenti (1)