Loading...
 * Dettagli Torrent   globale  | Commenti (0) 


- It - Capitolo 2 (2019).SD.H264.ita.eng.Ac3-5.1.sub.NUita.eng-MIRCrew -


Download via torrent:
Categoria bittorrent BDRip
Descrizione
It: Chapter Two - It - Capitolo 2 (2019).SD.H264.ita.eng.Ac3-5.1.sub.NUita.eng-MIRCrew


NO FOUND ONLY ORIGINAL RELEASE

My release is always in double track audio italian and Original audio
for select it use VLC or dvd player home
not use wmp

It - Capitolo 2 - It Chapter Two (2019)











Titolo originale It: Chapter Two
Lingua originale inglese
Paese di produzione Stati Uniti d'America
Anno 2019
Durata 169 min
Rapporto 2,39:1
Genere Horror, Thriller
Regia Andrés Muschietti
Soggetto dal romanzo di Stephen King
Sceneggiatura Gary Dauberman



   James McAvoy: William "Bill" Denbrough
   Jaeden Martell: William "Bill" Denbrough giovane
   Bill Skarsgård: Pennywise / It
   Jessica Chastain: Beverly "Bev" Marsh
   Sophia Lillis: Beverly "Bev" Marsh giovane
   Jay Ryan: Benjamin "Ben" Hanscom
   Jeremy Ray Taylor: Benjamin "Ben" Hanscom giovane
   Bill Hader: Richard "Richie" Tozier
   Finn Wolfhard: Richard "Richie" Tozier giovane
   Isaiah Mustafa: Michael "Mike" Hanlon
   Chosen Jacobs: Michael "Mike" Hanlon giovane
   James Ransone: Edward "Eddie" Kaspbrak
   Jack Dylan Grazer: Edward "Eddie" Kaspbrak giovane
   Andy Bean: Stanley "Stan" Uris
   Wyatt Oleff: Stanley "Stan" Uris giovane
   Jackson Robert Scott: George "Georgie" Denbrough
   Joan Gregson: sig.ra Kersh
   Javier Botet: lebbroso
   Teach Grant: Henry Bowers
   Nicholas Hamilton: Henry Bowers giovane
   Jess Weixler: Audra Phillips
   Will Beinbrink: Tom Rogan
   Xavier Dolan: Adrian Mellon
   Taylor Frey: Don Hagarty
   Jake Weary: John "Webby" Garton
   Stephen Bogaert: Alvin Marsh
   Molly Atkinson: Myra / Sonia Kaspbrak
   Ryan Kiera Armstrong: Victoria Fuller
   Luke Roessler: Dean
   Joe Bostick: sig. Keene
   Juno Rinaldi: Gretta
   Stephen King: negoziante



Derry, 2016. Alla fiera della città, Adrian Mellon, dopo essere stato pestato e buttato giù da un ponte da una gang di bulli per la sua omosessualità, viene brutalmente ucciso da un mostruoso clown davanti agli occhi del fidanzato, mentre un mare di palloncini rossi riempie il canale.



Twenty-seven years after their first encounter with the terrifying Pennywise, the Losers Club have grown up and moved away, until a devastating phone call brings them back.

 










General
Unique ID                                : 180490826356201190140888697829381227198 (0x87C944CA9D74A709AAC5268EEF5DC2BE)
Complete name                            : It - Capitolo 2 - It Chapter Two (2019).SD.h264.ita.eng.sub.NUita.eng-MIRCrewIt - Capitolo 2 - It Chapter Two (2019).SD.h264.ita.eng.sub.NUita.eng-MIRCrew.mkv
Format                                   : Matroska
Format version                           : Version 2
File size                                : 2.30 GiB
Duration                                 : 2h 49mn
Overall bit rate                         : 1 942 Kbps
Movie name                               : robbyrs
Encoded date                             : UTC 2019-12-02T16:42:47Z
Writing application                      : mkvmerge v5.8.0 ('No Sleep / Pillow&#39 built on Sep  2 2012 15:37:04
Writing library                          : Lavf55.12.0

Video
ID                                       : 1
Format                                   : AVC
Format/Info                              : Advanced Video Codec
Format profile                           : [email protected]
Format settings, CABAC                   : Yes
Format settings, ReFrames                : 4 frames
Codec ID                                 : V_MPEG4/ISO/AVC
Duration                                 : 2h 49mn
Bit rate                                 : 1 300 Kbps
Width                                    : 720 pixels
Height                                   : 300 pixels
Display aspect ratio                     : 2.40:1
Frame rate                               : 23.976 fps
Color space                              : YUV
Chroma subsampling                       : 4:2:0
Bit depth                                : 8 bits
Scan type                                : Progressive
Bits/(Pixel*Frame)                       : 0.251
Stream size                              : 1.50 GiB (65%)
Title                                    : robbyrs
Writing library                          : x264 core 142 r2479 dd79a61
Encoding settings                        : cabac=1 / ref=1 / deblock=1:0:0 / analyse=0x1:0x111 / me=hex / subme=2 / psy=1 / psy_rd=1.00:0.00 / mixed_ref=0 / me_range=16 / chroma_me=1 / trellis=0 / 8x8dct=0 / cqm=0 / deadzone=21,11 / fast_pskip=1 / chroma_qp_offset=0 / threads=9 / lookahead_threads=2 / sliced_threads=0 / nr=0 / decimate=1 / interlaced=0 / bluray_compat=0 / constrained_intra=0 / bframes=3 / b_pyramid=2 / b_adapt=1 / b_bias=0 / direct=1 / weightb=1 / open_gop=0 / weightp=1 / keyint=240 / keyint_min=24 / scenecut=40 / intra_refresh=0 / rc_lookahead=10 / rc=abr / mbtree=1 / bitrate=1300 / ratetol=1.0 / qcomp=0.60 / qpmin=0 / qpmax=69 / qpstep=4 / vbv_maxrate=50000 / vbv_bufsize=62500 / nal_hrd=none / filler=0 / ip_ratio=1.40 / aq=1:1.00
Language                                 : Italian
Default                                  : Yes
Forced                                   : No
Color primaries                          : BT.709-5, BT.1361, IEC 61966-2-4, SMPTE RP177
Transfer characteristics                 : BT.709-5, BT.1361
Matrix coefficients                      : BT.709-5, BT.1361, IEC 61966-2-4 709, SMPTE RP177

Audio #1
ID                                       : 2
Format                                   : AC-3
Format/Info                              : Audio Coding 3
Mode extension                           : CM (complete main)
Codec ID                                 : A_AC3
Duration                                 : 2h 49mn
Bit rate mode                            : Constant
Bit rate                                 : 448 Kbps
Channel(s)                               : 6 channels
Channel positions                        : Front: L C R, Side: L R, LFE
Sampling rate                            : 48.0 KHz
Bit depth                                : 16 bits
Compression mode                         : Lossy
Delay relative to video                  : -5ms
Stream size                              : 543 MiB (23%)
Title                                    : Ita Ac3 5.1
Language                                 : Italian
Default                                  : Yes
Forced                                   : No

Audio #2
ID                                       : 3
Format                                   : AC-3
Format/Info                              : Audio Coding 3
Mode extension                           : CM (complete main)
Codec ID                                 : A_AC3
Duration                                 : 2h 49mn
Bit rate mode                            : Constant
Bit rate                                 : 192 Kbps
Channel(s)                               : 2 channels
Channel positions                        : Front: L R
Sampling rate                            : 48.0 KHz
Bit depth                                : 16 bits
Compression mode                         : Lossy
Delay relative to video                  : -5ms
Stream size                              : 233 MiB (10%)
Title                                    : Eng Ac3
Language                                 : English
Default                                  : No
Forced                                   : No







Info: Per scaricare devi usare un client come uTorrent o Transmission
AnnounceURL
udp://tracker.coppersurfer.tk:6969/announce
Hash 2c82931acab219bdbc959650fadd9a2e4f4482cf
Peers seeds: 35 , leech: 7
Size 2.30 GB
Completato 1040x
Aggiunto 02.12.19 - 22:12:52
Uploader   robbyrs
Votazione (Voti: 0)


Condividi questo bittorrent:


html/blog:


bbcode/forum:




Aggiungi Commento