Loading...
 * Dettagli Torrent   globale  | Commenti (0) 


- Homeland - Caccia alla spia S07e01-12 [Mux - H264 - Ita Aac] DLMux by UBi -


Download via torrent:
Categoria bittorrent SerieTv
Descrizione




Homeland
Settima Stagione

Titolo originale: Homeland
Numero Episodi: 12
Nazione: USA
Anno: 2011-in corso
Trasmessa da:
Genere: Serial drama/Crime thriller/Espionage thriller
Durata: 55' circa

Cast:
Claire Danes  as Carrie Mathison
Mandy Patinkin  as Saul Berenson
Rupert Friend  as Peter Quinn
F. Murray Abraham  as Dar Adal

Trama:
Carrie ha lasciato il suo lavoro alla Casa Bianca e si è trasferita a Washington per vivere con la sorella Maggie. Affronta l'amministrazione Keane per ottenere la liberazione dei 200 membri della comunità di intelligence che sono stati arrestati sotto gli ordini del presidente Keane nella stagione precedente.

Screenshot:



Report Avinaptic:

General
Unique ID                                : 188139517351545012656117874507714447297 (0x8D8A5A5F73D9FB882FB6E987F924C7C1)
Complete name                            : DownloadsHomeland - Caccia alla spia S07e01-12Homeland.7x01.Nemico.Dello.Stato.ITA.DLMux.x264-UBi.mkv
Format                                   : Matroska
Format version                           : Version 4
File size                                : 501 MiB
Duration                                 : 57 min 28 s
Overall bit rate                         : 1 218 kb/s
Encoded date                             : UTC 2018-04-23 21:28:19
Writing application                      : mkvmerge v22.0.0 ('At The End Of The World&#39 64-bit
Writing library                          : libebml v1.3.5 + libmatroska v1.4.8

Video
ID                                       : 1
Format                                   : AVC
Format/Info                              : Advanced Video Codec
Format profile                           : [email protected]
Format settings                          : CABAC / 8 Ref Frames
Format settings, CABAC                   : Yes
Format settings, Reference frames        : 8 frames
Codec ID                                 : V_MPEG4/ISO/AVC
Duration                                 : 57 min 28 s
Bit rate                                 : 1 100 kb/s
Width                                    : 720 pixels
Height                                   : 404 pixels
Display aspect ratio                     : 16:9
Frame rate mode                          : Constant
Frame rate                               : 25.000 FPS
Color space                              : YUV
Chroma subsampling                       : 4:2:0
Bit depth                                : 8 bits
Scan type                                : Progressive
Bits/(Pixel*Frame)                       : 0.151
Stream size                              : 452 MiB (90%)
Writing library                          : x264 core 155 r2901 7d0ff22
Encoding settings                        : cabac=1 / ref=8 / deblock=1:-2:-2 / analyse=0x3:0x133 / me=umh / subme=8 / psy=1 / psy_rd=1.00:0.00 / mixed_ref=1 / me_range=16 / chroma_me=1 / trellis=2 / 8x8dct=1 / cqm=0 / deadzone=21,11 / fast_pskip=0 / chroma_qp_offset=-2 / threads=16 / lookahead_threads=2 / sliced_threads=0 / nr=0 / decimate=1 / interlaced=0 / bluray_compat=0 / constrained_intra=0 / bframes=3 / b_pyramid=2 / b_adapt=2 / b_bias=0 / direct=3 / weightb=1 / open_gop=0 / weightp=2 / keyint=250 / keyint_min=23 / scenecut=40 / intra_refresh=0 / rc_lookahead=60 / rc=2pass / mbtree=1 / bitrate=1100 / ratetol=1.0 / qcomp=0.60 / qpmin=0 / qpmax=69 / qpstep=4 / cplxblur=20.0 / qblur=0.5 / ip_ratio=1.40 / aq=1:1.00
Default                                  : Yes
Forced                                   : No

Audio
ID                                       : 2
Format                                   : AAC LC
Format/Info                              : Advanced Audio Codec Low Complexity
Codec ID                                 : A_AAC-2
Duration                                 : 57 min 28 s
Bit rate                                 : 116 kb/s
Channel(s)                               : 2 channels
Channel layout                           : L R
Sampling rate                            : 48.0 kHz
Frame rate                               : 46.875 FPS (1024 SPF)
Compression mode                         : Lossy
Stream size                              : 47.5 MiB (9%)
Default                                  : Yes
Forced                                   : No
Info: Per scaricare devi usare un client come uTorrent o Transmission
AnnounceURL
udp://tracker.tntvillage.scambioetico.org:2710/announce
Hash 4f62ef3fdb6fccd1d4f9c8b02069170b4da164bb
Peers seeds: 20 , leech: 4
Size 5.32 GB
Completato 33x
Aggiunto 09.11.19 - 00:11:44
Uploader   alicerasi
Votazione (Voti: 0)


Condividi questo bittorrent:


html/blog:


bbcode/forum:




Aggiungi Commento