Loading...
 * Dettagli Torrent   globale  | Commenti (0) 


- La ragazza nella nebbia (2017).1080p.H264.italian.Ac3-5.1.sub.NUita.eng.MIRCrew -


Download via torrent:
Categoria bittorrent BDRip
Descrizione
La ragazza nella nebbia (2017).1080p.H264.italian.Ac3-5.1.sub.NUita.eng.MIRCrew


NO FOUND ONLY ORIGINAL RELEASE

My release is always in double track audio italian and Original audio
for select it use VLC or dvd player home
not use wmp

ENGLISH SUBTITLE INSIDE
e sottotitoli Italiani per non udenti inclusi

La ragazza nella nebbia (2017)

Quality MIRCrew on HD 1080p da 2,6 gb










GENERE: Giallo
ANNO: 2017
REGIA: Donato Carrisi
PAESE: Italia
DURATA: 127 Min



Toni Servillo, Alessio Boni, Lorenzo Richelmy, Galatea Ranzi, Michela Cescon, Lucrezia Guidone, Daniela Piazza, Thierry Toscan, Jacopo Olmo Antinori, Antonio Gerardi, Greta Scacchi, Jean Reno



La ragazza nella nebbia, thriller firmato Donato Carrisi, vanta un cast stellare capitanato da Toni Servillo, al fianco di Jean Reno e Alessio Boni. Un banco di nebbia fitta avvolge il paese di Avechot.........



Special agent Vogel is sent to an isolated town in a remote mountain valley to investigate the case of a sixteen years old's disappearance. .........

 





General
Unique ID                                : 238013746649529722134700623018687579481 (0xB30FC7BA311F224B80EC35763CEDC559)
Complete name                            : La ragazza nella nebbia (2017).1080p.h264.ita.sub.NUita.eng-MIRCrewLa ragazza nella nebbia (2017).1080p.h264.ita.sub.NUita.eng-MIRCrew.mkv
Format                                   : Matroska
Format version                           : Version 2
File size                                : 2.62 GiB
Duration                                 : 2h 8mn
Overall bit rate                         : 2 918 Kbps
Encoded date                             : UTC 2019-10-20 17:56:05
Writing application                      : mkvmerge v5.8.0 ('No Sleep / Pillow&#39 built on Sep  2 2012 15:37:04
Writing library                          : Lavf54.63.100

Video
ID                                       : 1
Format                                   : AVC
Format/Info                              : Advanced Video Codec
Format profile                           : [email protected]
Format settings, CABAC                   : Yes
Format settings, ReFrames                : 2 frames
Codec ID                                 : V_MPEG4/ISO/AVC
Duration                                 : 2h 8mn
Bit rate                                 : 2 500 Kbps
Width                                    : 1 920 pixels
Height                                   : 800 pixels
Display aspect ratio                     : 2.40:1
Original display aspect ratio            : 2.40:1
Frame rate mode                          : Variable
Frame rate                               : 24.000 fps
Color space                              : YUV
Chroma subsampling                       : 4:2:0
Bit depth                                : 8 bits
Scan type                                : Progressive
Bits/(Pixel*Frame)                       : 0.068
Stream size                              : 2.16 GiB (83%)
Writing library                          : x264 core 130 r2273
Encoding settings                        : cabac=1 / ref=2 / deblock=1:0:0 / analyse=0x1:0x131 / me=hex / subme=7 / psy=1 / psy_rd=1.00:0.00 / mixed_ref=0 / me_range=16 / chroma_me=1 / trellis=1 / 8x8dct=0 / cqm=0 / deadzone=21,11 / fast_pskip=1 / chroma_qp_offset=-2 / threads=9 / lookahead_threads=1 / sliced_threads=0 / nr=0 / decimate=1 / interlaced=0 / bluray_compat=0 / constrained_intra=0 / bframes=3 / b_pyramid=0 / b_adapt=1 / b_bias=0 / direct=3 / weightb=1 / open_gop=0 / weightp=2 / keyint=240 / keyint_min=24 / scenecut=40 / intra_refresh=0 / rc_lookahead=40 / rc=abr / mbtree=1 / bitrate=2500 / ratetol=1.0 / qcomp=0.60 / qpmin=10 / qpmax=69 / qpstep=4 / vbv_maxrate=24000 / vbv_bufsize=24000 / nal_hrd=none / ip_ratio=1.40 / aq=1:1.00
Language                                 : Italian
Default                                  : Yes
Forced                                   : No
DURATION                                 : 02:08:18.042000000
NUMBER_OF_FRAMES                         : 184753
NUMBER_OF_BYTES                          : 2522631913
_STATISTICS_WRITING_APP                  : mkvmerge v27.0.0 ('Metropolis&#39 64-bit
_STATISTICS_WRITING_DATE_UTC             : 2018-10-05 21:03:56
_STATISTICS_TAGS                         : BPS DURATION NUMBER_OF_FRAMES NUMBER_OF_BYTES

Audio
ID                                       : 2
Format                                   : AC-3
Format/Info                              : Audio Coding 3
Mode extension                           : CM (complete main)
Codec ID                                 : A_AC3
Duration                                 : 2h 8mn
Bit rate mode                            : Constant
Bit rate                                 : 448 Kbps
Channel(s)                               : 6 channels
Channel positions                        : Front: L C R, Side: L R, LFE
Sampling rate                            : 48.0 KHz
Bit depth                                : 16 bits
Compression mode                         : Lossy
Delay relative to video                  : -5ms
Stream size                              : 411 MiB (15%)
Title                                    : Ita Ac3 5.1
Language                                 : Italian
Default                                  : Yes
Forced                                   : No
DURATION                                 : 02:08:18.038000000
NUMBER_OF_FRAMES                         : 721691
NUMBER_OF_BYTES                          : 1452042292
_STATISTICS_WRITING_APP                  : mkvmerge v27.0.0 ('Metropolis&#39 64-bit
_STATISTICS_WRITING_DATE_UTC             : 2018-10-05 21:03:56
_STATISTICS_TAGS                         : BPS DURATION NUMBER_OF_FRAMES NUMBER_OF_BYTES

Menu
00:00:00.000                             : :00:00:00.000
00:06:17.875                             : :00:06:17.875
00:15:48.042                             : :00:15:48.042
00:22:44.500                             : :00:22:44.500
00:31:22.083                             : :00:31:22.083
00:39:51.750                             : :00:39:51.750
00:47:44.417                             : :00:47:44.417
00:54:36.417                             : :00:54:36.417
01:01:11.750                             : :01:01:11.750
01:11:32.083                             : :01:11:32.083
01:18:15.792                             : :01:18:15.792
01:27:31.708                             : :01:27:31.708
01:38:13.875                             : :01:38:13.875
01:47:45.542                             : :01:47:45.542
01:57:28.083                             : :01:57:28.083






Info: Per scaricare devi usare un client come uTorrent o Transmission
AnnounceURL
udp://tracker.coppersurfer.tk:6969/announce
Hash d2f2b31145967d0805bc8f59f4d49eb59a895746
Peers seeds: 93 , leech: 27
Size 2.62 GB
Completato 1784x
Aggiunto 28.10.19 - 18:10:15
Uploader   robbyrs
Votazione (Voti: 0)


Condividi questo bittorrent:


html/blog:


bbcode/forum:




Aggiungi Commento