Loading...
 * Dettagli Torrent   globale  | Commenti (0) 


- The Walking Dead 10x01 I confini che superiamo.720p.H264.ita.eng.sub.ita.eng-MIRCrew -


Download via torrent:
Categoria bittorrent SerieTv
Descrizione
The Walking Dead 10x01 - Lines We Cross I confini che superiamo.720p.H264.ita.eng.sub.ita.eng-MIRCrew









La decima stagione della serie televisiva The Walking Dead, composta da sedici episodi, è trasmessa in prima visione assoluta negli Stati Uniti d'America dall'emittente AMC dal 6 ottobre 2019


Epiodi:


1 Lines We Cross I confini che superiamo
2 We Are the End of the World
3 Ghosts
4 Silence the Whisperers
5 What It Always Is
6 Bonds
7 Open Your Eyes
8 The World Before





Dati file:


General

Complete name                            : The Walking Dead 10x01 I confini che superiamo.720p.ita.eng.sub.ita.eng-MIRCrewThe Walking Dead 10x01 I confini che superiamo.720p.ita.eng.sub.ita.eng-MIRCrew.mkv
Format                                   : Matroska
Format version                           : Version 2
File size                                : 833 MiB
Duration                                 : 49mn 26s
Overall bit rate                         : 2 356 Kbps
Movie name                               : MIRCrew
Encoded date                             : UTC 2019-10-07 21:46:57
Writing application                      : Lavf54.63.100
Writing library                          : Lavf54.63.100
COMMENT                                  : mircrew-releases
COPYRIGHT                                : robbyrs

Video
ID                                       : 1
Format                                   : AVC
Format/Info                              : Advanced Video Codec
Format profile                           : [email protected]
Format settings, CABAC                   : Yes
Format settings, ReFrames                : 2 frames
Codec ID                                 : V_MPEG4/ISO/AVC
Duration                                 : 49mn 26s
Bit rate                                 : 2 000 Kbps
Width                                    : 1 280 pixels
Height                                   : 720 pixels
Display aspect ratio                     : 16:9
Frame rate mode                          : Variable
Frame rate                               : 25.000 fps
Color space                              : YUV
Chroma subsampling                       : 4:2:0
Bit depth                                : 8 bits
Scan type                                : Progressive
Bits/(Pixel*Frame)                       : 0.087
Stream size                              : 681 MiB (82%)
Writing library                          : x264 core 130 r2273
Encoding settings                        : cabac=1 / ref=2 / deblock=1:0:0 / analyse=0x1:0x131 / me=hex / subme=7 / psy=1 / psy_rd=1.00:0.00 / mixed_ref=0 / me_range=16 / chroma_me=1 / trellis=1 / 8x8dct=0 / cqm=0 / deadzone=21,11 / fast_pskip=1 / chroma_qp_offset=-2 / threads=9 / lookahead_threads=1 / sliced_threads=0 / nr=0 / decimate=1 / interlaced=0 / bluray_compat=0 / constrained_intra=0 / bframes=3 / b_pyramid=0 / b_adapt=1 / b_bias=0 / direct=3 / weightb=1 / open_gop=0 / weightp=2 / keyint=250 / keyint_min=25 / scenecut=40 / intra_refresh=0 / rc_lookahead=40 / rc=abr / mbtree=1 / bitrate=2000 / ratetol=1.0 / qcomp=0.60 / qpmin=10 / qpmax=69 / qpstep=4 / vbv_maxrate=24000 / vbv_bufsize=24000 / nal_hrd=none / ip_ratio=1.40 / aq=1:1.00
Language                                 : Italian
Default                                  : Yes
Forced                                   : No
DURATION                                 : 00:49:26.360000000
NUMBER_OF_FRAMES                         : 74159
NUMBER_OF_BYTES                          : 3709296792
_STATISTICS_WRITING_APP                  : mkvmerge v7.1.0 ('Good Love&#39 32bit built on Jul 27 2014 12:59:18
_STATISTICS_WRITING_DATE_UTC             : 2019-10-07 21:46:57
_STATISTICS_TAGS                         : BPS DURATION NUMBER_OF_FRAMES NUMBER_OF_BYTES

Audio #1
ID                                       : 2
Format                                   : AC-3
Format/Info                              : Audio Coding 3
Mode extension                           : CM (complete main)
Codec ID                                 : A_AC3
Duration                                 : 49mn 26s
Bit rate mode                            : Constant
Bit rate                                 : 192 Kbps
Channel(s)                               : 2 channels
Channel positions                        : Front: L R
Sampling rate                            : 48.0 KHz
Bit depth                                : 16 bits
Compression mode                         : Lossy
Delay relative to video                  : 1mn 5s
Stream size                              : 67.9 MiB (8%)
Title                                    : ITA
Language                                 : Italian
Default                                  : Yes
Forced                                   : Yes
DURATION                                 : 00:49:24.864000000
NUMBER_OF_FRAMES                         : 92652
NUMBER_OF_BYTES                          : 71156736
_STATISTICS_WRITING_APP                  : mkvmerge v7.1.0 ('Good Love&#39 32bit built on Jul 27 2014 12:59:18
_STATISTICS_WRITING_DATE_UTC             : 2019-10-07 21:46:57
_STATISTICS_TAGS                         : BPS DURATION NUMBER_OF_FRAMES NUMBER_OF_BYTES

Audio #2
ID                                       : 3
Format                                   : AC-3
Format/Info                              : Audio Coding 3
Mode extension                           : CM (complete main)
Codec ID                                 : A_AC3
Duration                                 : 49mn 26s
Bit rate mode                            : Constant
Bit rate                                 : 192 Kbps
Channel(s)                               : 2 channels
Channel positions                        : Front: L R
Sampling rate                            : 48.0 KHz
Bit depth                                : 16 bits
Compression mode                         : Lossy
Delay relative to video                  : 1mn 5s
Stream size                              : 67.9 MiB (8%)
Title                                    : ENG
Language                                 : English
Default                                  : No
Forced                                   : No
DURATION                                 : 00:49:26.368000000
NUMBER_OF_FRAMES                         : 92699
NUMBER_OF_BYTES                          : 142385664
_STATISTICS_WRITING_APP                  : mkvmerge v7.1.0 ('Good Love&#39 32bit built on Jul 27 2014 12:59:18
_STATISTICS_WRITING_DATE_UTC             : 2019-10-07 21:46:57
_STATISTICS_TAGS                         : BPS DURATION NUMBER_OF_FRAMES NUMBER_OF_BYTES

Info: Per scaricare devi usare un client come uTorrent o Transmission
AnnounceURL
udp://tracker.coppersurfer.tk:6969/announce
Hash 9f0c442f8aa42897b08017eac6ce9461e2ee095d
Peers seeds: 63 , leech: 11
Size 833.53 MB
Completato 1346x
Aggiunto 08.10.19 - 18:10:34
Uploader   robbyrs
Votazione (Voti: 0)


Condividi questo bittorrent:


html/blog:


bbcode/forum:




Aggiungi Commento