Loading...
 * Dettagli Torrent   globale  | Commenti (0) 


- Toy Story 4 (2019).720p.H264.ita.eng.Ac3-5.1.sub.ita.eng-MIRCrew -


Download via torrent:
Categoria bittorrent BDRip
Descrizione
Toy Story 4 (2019).720p.H264.ita.eng.Ac3-5.1.sub.ita.eng-MIRCrew






NO FOUND ONLY ORIGINAL RELEASE


My release is always in double track audio italian and Original audio
for select it use VLC or dvd player home
not use wmp

Toy Story 4 (2019)

Quality MIRCrew on HD 720p da 1,8 gb









Lingua originale inglese
Paese di produzione Stati Uniti d'America
Anno 2019
Durata 100 min[1]
Rapporto 2,39:1
Genere animazione, commedia, avventura, drammatico
Regia Josh Cooley
Soggetto John Lasseter, Pete Docter, Andrew Stanton, Lee Unkrich, Rashida Jones, Will McCormack, Josh Cooley, Valerie LaPointe[2]
Sceneggiatura Stephany Folsom, Andrew Stanton



*******************************************



Nove anni prima degli eventi del terzo film, lo Sceriffo Woody, Buzz Lightyear, Jessie, Bo Peep e Slinky cercano di salvare RC, che è rimasto fuori dalla casa di Andy durante un temporale



When a new toy called "Forky" joins Woody and the gang, a road trip alongside old and new friends reveals how big the world can be for a toy.

 





General
Unique ID                                : 253083988086179513595024927451727639938 (0xBE6633FF048920D6B01DB62E506DB582)
Complete name                            : Toy Story 4 (2019).720.H264.ita.eng.sub.ita.eng-MIRCrewToy Story 4 (2019).720-h264.ita.eng.sub.ita.eng-MIRCrew.mkv
Format                                   : Matroska
Format version                           : Version 2
File size                                : 1.84 GiB
Duration                                 : 1h 40mn
Overall bit rate                         : 2 631 Kbps
Movie name                               : MIRCrew
Encoded date                             : UTC 2019-10-06 00:43:43
Writing application                      : mkvmerge v5.8.0 ('No Sleep / Pillow&#39 built on Sep  2 2012 15:37:04
Writing library                          : Lavf54.63.100
COMMENT                                  : mircrew-releases
COPYRIGHT                                : robbyrs

Video
ID                                       : 1
Format                                   : AVC
Format/Info                              : Advanced Video Codec
Format profile                           : [email protected]
Format settings, CABAC                   : Yes
Format settings, ReFrames                : 2 frames
Codec ID                                 : V_MPEG4/ISO/AVC
Duration                                 : 1h 40mn
Bit rate                                 : 1 900 Kbps
Width                                    : 1 280 pixels
Height                                   : 720 pixels
Display aspect ratio                     : 16:9
Frame rate mode                          : Variable
Frame rate                               : 23.976 fps
Color space                              : YUV
Chroma subsampling                       : 4:2:0
Bit depth                                : 8 bits
Scan type                                : Progressive
Bits/(Pixel*Frame)                       : 0.086
Stream size                              : 1.27 GiB (69%)
Title                                    : MIRCrew
Writing library                          : x264 core 130 r2273
Encoding settings                        : cabac=1 / ref=2 / deblock=1:0:0 / analyse=0x1:0x131 / me=hex / subme=7 / psy=1 / psy_rd=1.00:0.00 / mixed_ref=0 / me_range=16 / chroma_me=1 / trellis=1 / 8x8dct=0 / cqm=0 / deadzone=21,11 / fast_pskip=1 / chroma_qp_offset=-2 / threads=9 / lookahead_threads=1 / sliced_threads=0 / nr=0 / decimate=1 / interlaced=0 / bluray_compat=0 / constrained_intra=0 / bframes=3 / b_pyramid=0 / b_adapt=1 / b_bias=0 / direct=3 / weightb=1 / open_gop=0 / weightp=2 / keyint=230 / keyint_min=23 / scenecut=40 / intra_refresh=0 / rc_lookahead=40 / rc=abr / mbtree=1 / bitrate=1900 / ratetol=1.0 / qcomp=0.60 / qpmin=10 / qpmax=69 / qpstep=4 / vbv_maxrate=24000 / vbv_bufsize=24000 / nal_hrd=none / ip_ratio=1.40 / aq=1:1.00
Language                                 : Italian
Default                                  : Yes
Forced                                   : No
DURATION                                 : 01:40:03.456000000
NUMBER_OF_FRAMES                         : 143939
NUMBER_OF_BYTES                          : 17706308226
_STATISTICS_WRITING_APP                  : mkvmerge v37.0.0 ('Leave It&#39 64-bit
_STATISTICS_WRITING_DATE_UTC             : 2019-10-06 00:43:43
_STATISTICS_TAGS                         : BPS DURATION NUMBER_OF_FRAMES NUMBER_OF_BYTES

Audio #1
ID                                       : 2
Format                                   : AC-3
Format/Info                              : Audio Coding 3
Mode extension                           : CM (complete main)
Codec ID                                 : A_AC3
Duration                                 : 1h 40mn
Bit rate mode                            : Constant
Bit rate                                 : 384 Kbps
Channel(s)                               : 6 channels
Channel positions                        : Front: L C R, Side: L R, LFE
Sampling rate                            : 48.0 KHz
Bit depth                                : 16 bits
Compression mode                         : Lossy
Delay relative to video                  : -5ms
Stream size                              : 275 MiB (15%)
Title                                    : Ita Ac3 5.1
Language                                 : Italian
Default                                  : Yes
Forced                                   : No
DURATION                                 : 01:40:06.624000000
NUMBER_OF_FRAMES                         : 187707
NUMBER_OF_BYTES                          : 288317952
_STATISTICS_WRITING_APP                  : mkvmerge v37.0.0 ('Leave It&#39 64-bit
_STATISTICS_WRITING_DATE_UTC             : 2019-10-06 00:43:43
_STATISTICS_TAGS                         : BPS DURATION NUMBER_OF_FRAMES NUMBER_OF_BYTES

Audio #2
ID                                       : 3
Format                                   : AC-3
Format/Info                              : Audio Coding 3
Mode extension                           : CM (complete main)
Codec ID                                 : A_AC3
Duration                                 : 1h 40mn
Bit rate mode                            : Constant
Bit rate                                 : 384 Kbps
Channel(s)                               : 6 channels
Channel positions                        : Front: L C R, Side: L R, LFE
Sampling rate                            : 48.0 KHz
Bit depth                                : 16 bits
Compression mode                         : Lossy
Delay relative to video                  : -5ms
Stream size                              : 275 MiB (15%)
Title                                    : Eng Ac3 5.1
Language                                 : English
Default                                  : No
Forced                                   : No
DURATION                                 : 01:40:03.488000000
NUMBER_OF_FRAMES                         : 187609
NUMBER_OF_BYTES                          : 480279040
_STATISTICS_WRITING_APP                  : mkvmerge v37.0.0 ('Leave It&#39 64-bit
_STATISTICS_WRITING_DATE_UTC             : 2019-10-06 00:43:43
_STATISTICS_TAGS                         : BPS DURATION NUMBER_OF_FRAMES NUMBER_OF_BYTES

Menu
00:00:00.000                             : rologue
00:05:39.798                             : laytime
00:11:21.097                             : :Classroom
00:15:06.239                             : :Forky Introduction
00:19:01.140                             : :RV Trip
00:20:52.042                             : :Forky Jump
00:22:43.821                             : :Woody on the Road
00:26:11.111                             : :Bo in the Window
00:27:47.082                             : :Meet Gabby Gabby
00:32:11.846                             : :Bonnie Wakes
00:36:17.425                             : :Bo Meet
00:40:34.640                             : :Forky Bait
00:42:56.699                             : ucky and Bunny
00:44:26.872                             : :Ferris Wheel
00:46:39.380                             : :Store Roof
00:48:06.175                             : :Flat Tire
00:49:18.664                             : :Lost Sheep
00:52:25.809                             : :The Key
00:53:58.568                             : :Welcome Mat
00:54:34.479                             : :Recruit Duke
00:59:06.960                             : :Coming Together
01:01:30.645                             : :Break In
01:04:40.752                             : :Bo Leaves
01:07:25.249                             : :Gabby Standoff
01:09:31.042                             : :Leaving Town
01:10:54.834                             : :Second Thoughts
01:12:05.154                             : :Rejection
01:15:03.040                             : :Saving Gabby
01:17:29.770                             : :GPS
01:18:04.846                             : :Kid Search
01:19:21.840                             : lan B
01:19:48.116                             : :Lost Girl
01:22:24.940                             : :Goodbye
01:29:00.293                             : :End Credits





Info: Per scaricare devi usare un client come uTorrent o Transmission
AnnounceURL
udp://tracker.coppersurfer.tk:6969/announce
Hash 341ea62f5c34e7a618f08080e12dd04587bf516d
Peers seeds: 200 , leech: 44
Size 1.84 GB
Completato 4149x
Aggiunto 06.10.19 - 19:10:28
Uploader   robbyrs
Votazione (Voti: 1)


Condividi questo bittorrent:


html/blog:


bbcode/forum:




Aggiungi Commento