Loading...
 * Dettagli Torrent   globale  | Commenti (1) 


- The Loft (2014).720p.H264.ita.eng.Ac3-5.1.sub.ita.eng-MIRCrew -


Download via torrent:
Categoria bittorrent BDRip
Descrizione
The Loft (2014).720p.H264.ita.eng.Ac3-5.1.sub.ita.eng-MIRCrew






NO FOUND ONLY ORIGINAL RELEASE


My release is always in double track audio italian and Original audio
for select it use VLC or dvd player home
not use wmp

The Loft (2014)

Quality MIRCrew on HD 720p da 2,0 gb










Titolo originale The Loft
Lingua originale inglese
Paese di produzione Stati Uniti d'America, Belgio
Anno 2014
Durata 103 min
Rapporto 2,35:1
Genere thriller, drammatico, erotico
Regia Erik Van Looy
Soggetto Erik Van Looy, Bart De Pauw
Sceneggiatura Bart De Pauw, Wesley Strick



   Karl Urban: Vincet Stevens
   Wentworth Miller: Luke Seacord
   James Marsden: Chris Vanowen
   Eric Stonestreet: Marty Landry
   Matthias Schoenaerts: Phillips Williams
   Rachael Taylor: Ann Morris
   Isabel Lucas: Sarah Deakins
   Rhona Mitra: Allison Vanowen
   Valerie Cruz: Barbara Stevens
   Elaine Cassidy: Ellie Seacord
   Kali Rocha: Mimi Landry
   Margarita Levieva: Vicky Fry
   Dora Madison: Zoe Trauner
   Kristin Lehman: Detective Huggins
   Robert Wisdom: Detective Cohagan
   Ric Reitz: Joel Kotkin
   Graham Beckel: Hirman Fry
   Kathy Deitch: Dana



Cinque uomini sposati (Vincent, Luke, Chris, Marty e Philipp) condividono la proprietà di un loft esclusivo, che usano in segreto per soddisfare i propri desideri sessuali con diverse amanti occasionali. Ma quando il corpo di una donna assassinata viene trovato proprio in quel loft, i cinque iniziano a sospettare uno dell'altro in quanto sono gli unici a possedere le chiavi per entrare nel locale.



Five married guys conspire to secretly share a penthouse loft in the city--a place where they can carry out hidden affairs and indulge in their deepest fantasies. But the fantasy becomes a nightmare when they discover the dead body of an unknown woman in the loft, and they realize one of the group must be involved.  

 






General
Unique ID                                : 206287104093500730227406834176798927760 (0x9B31737ABADC1DE59AC771903C82AB90)
Complete name                            : The Loft (2014).720p.ita.eng.sub.ita.eng-MIRCrewThe Loft (2014).720p.ita.eng.sub.ita.eng-MIRCrew.mkv
Format                                   : Matroska
Format version                           : Version 2
File size                                : 1.99 GiB
Duration                                 : 1h 42mn
Overall bit rate                         : 2 778 Kbps
Movie name                               : MIRCrew
Encoded date                             : UTC 2019-09-16T15:50:41Z
Writing application                      : mkvmerge v5.8.0 ('No Sleep / Pillow&#39 built on Sep  2 2012 15:37:04
Writing library                          : Lavf55.12.0

Video
ID                                       : 1
Format                                   : AVC
Format/Info                              : Advanced Video Codec
Format profile                           : [email protected]
Format settings, CABAC                   : Yes
Format settings, ReFrames                : 4 frames
Codec ID                                 : V_MPEG4/ISO/AVC
Duration                                 : 1h 42mn
Bit rate                                 : 1 900 Kbps
Width                                    : 1 280 pixels
Height                                   : 528 pixels
Display aspect ratio                     : 2.40:1
Frame rate                               : 24.000 fps
Color space                              : YUV
Chroma subsampling                       : 4:2:0
Bit depth                                : 8 bits
Scan type                                : Progressive
Bits/(Pixel*Frame)                       : 0.117
Stream size                              : 1.31 GiB (66%)
Title                                    : MIRCrew
Writing library                          : x264 core 142 r2479 dd79a61
Encoding settings                        : cabac=1 / ref=1 / deblock=1:0:0 / analyse=0x1:0x111 / me=hex / subme=2 / psy=1 / psy_rd=1.00:0.00 / mixed_ref=0 / me_range=16 / chroma_me=1 / trellis=0 / 8x8dct=0 / cqm=0 / deadzone=21,11 / fast_pskip=1 / chroma_qp_offset=0 / threads=9 / lookahead_threads=3 / sliced_threads=0 / nr=0 / decimate=1 / interlaced=0 / bluray_compat=0 / constrained_intra=0 / bframes=3 / b_pyramid=2 / b_adapt=1 / b_bias=0 / direct=1 / weightb=1 / open_gop=0 / weightp=1 / keyint=240 / keyint_min=24 / scenecut=40 / intra_refresh=0 / rc_lookahead=10 / rc=abr / mbtree=1 / bitrate=1900 / ratetol=1.0 / qcomp=0.60 / qpmin=0 / qpmax=69 / qpstep=4 / vbv_maxrate=50000 / vbv_bufsize=62500 / nal_hrd=none / filler=0 / ip_ratio=1.40 / aq=1:1.00
Language                                 : Italian
Default                                  : Yes
Forced                                   : No
Color primaries                          : BT.709-5, BT.1361, IEC 61966-2-4, SMPTE RP177
Transfer characteristics                 : BT.709-5, BT.1361
Matrix coefficients                      : BT.709-5, BT.1361, IEC 61966-2-4 709, SMPTE RP177

Audio #1
ID                                       : 2
Format                                   : AC-3
Format/Info                              : Audio Coding 3
Mode extension                           : CM (complete main)
Codec ID                                 : A_AC3
Duration                                 : 1h 42mn
Bit rate mode                            : Constant
Bit rate                                 : 448 Kbps
Channel(s)                               : 6 channels
Channel positions                        : Front: L C R, Side: L R, LFE
Sampling rate                            : 48.0 KHz
Bit depth                                : 16 bits
Compression mode                         : Lossy
Delay relative to video                  : -5ms
Stream size                              : 329 MiB (16%)
Title                                    : Ita Ac3 5.1
Language                                 : Italian
Default                                  : Yes
Forced                                   : No

Audio #2
ID                                       : 3
Format                                   : AC-3
Format/Info                              : Audio Coding 3
Mode extension                           : CM (complete main)
Codec ID                                 : A_AC3
Duration                                 : 1h 42mn
Bit rate mode                            : Constant
Bit rate                                 : 448 Kbps
Channel(s)                               : 6 channels
Channel positions                        : Front: L C R, Side: L R, LFE
Sampling rate                            : 48.0 KHz
Bit depth                                : 16 bits
Compression mode                         : Lossy
Delay relative to video                  : -5ms
Stream size                              : 329 MiB (16%)
Title                                    : Eng Ac3 5.1
Language                                 : English
Default                                  : No
Forced                                   : No

Menu
00:00:00.000                             : :00:00:00.000
00:04:05.541                             : :00:04:05.333
00:08:07.375                             : :00:08:07.167
00:13:03.125                             : :00:13:03.000
00:18:20.500                             : :00:18:20.292
00:22:44.333                             : :00:22:44.167
00:26:55.250                             : :00:26:55.042
00:31:37.958                             : :00:31:37.750
00:37:45.291                             : :00:37:45.083
00:41:52.583                             : :00:41:52.458
00:46:26.500                             : :00:46:26.292
00:51:42.708                             : :00:51:42.542
00:57:06.666                             : :00:57:06.500
01:01:14.125                             : :01:01:13.917
01:06:14.458                             : :01:06:14.333
01:11:09.708                             : :01:11:09.500
01:15:40.291                             : :01:15:40.167
01:21:03.166                             : :01:21:02.958
01:29:41.291                             : :01:29:41.125
01:37:15.791                             : :01:37:15.625




Info: Per scaricare devi usare un client come uTorrent o Transmission
AnnounceURL
udp://tracker.coppersurfer.tk:6969/announce
Hash 0044e565a66eb70076c0b195db06c61c1ea7fb85
Peers seeds: 51 , leech: 32
Size 1.99 GB
Completato 257x
Aggiunto 21.09.19 - 17:09:24
Uploader   robbyrs
Votazione (Voti: 0)


Condividi questo bittorrent:


html/blog:


bbcode/forum:




Aggiungi Commento
Ultimi commenti
 jackal98jackal98   
Grazie
22/09 09.39
Tutti commenti (1)