Loading...
 * Dettagli Torrent   globale  | Commenti (0) 


- L Angelo del crimine (2018).720p.H264.ita.Ac3-5.1.spa.Ac3.sub.ita-MIRCrew -


Download via torrent:
Categoria bittorrent BDRip
Descrizione
El angel - L Angelo del crimine 2018.720p.H264.ita.Ac3-5.1.spa.Ac3.sub.ita-MIRCrew






NO FOUND ONLY ORIGINAL RELEASE


My release is always in double track audio italian and Original audio
for select it use VLC or dvd player home
not use wmp

L Angelo del crimine - El angel 2018

Quality MIRCrew on HD 720p da 2,0 gb










Riconoscimenti
2018 - Festival di Cannes

   In competizione nella sezione Un Certain Regard
   Nomination Queer Palm

2018 - Havana Film Festival

   Miglior attore a Lorenzo Ferro
   Nomination Miglior film

2018 - Kerala International Film Festival

   Nomination Miglior film

2018 - New Mexico Film Critics

   Nomination Miglior attore a Lorenzo Ferro

2018 - Oslo Films from the South Festival

   Nomination Best Feature

2018 - Premio Fénix

Titolo originale El ángel
Lingua originale spagnolo
Paese di produzione Argentina, Spagna
Anno 2018
Durata 118 min
Rapporto 1,85:1
Genere drammatico, biografico
Regia Luis Ortega
Sceneggiatura Sergio Olguín, Luis Ortega, Rodolfo Palacios




   Lorenzo Ferro: Carlos
   Chino Darín: Ramón
   Daniel Fanego: José
   Mercedes Morán: Ana María
   Cecilia Roth: Aurora
   Peter Lanzani: Miguel
   Luis Gnecco: Héctor
   Malena Villa: Marisol / Magdalena
   William Prociuk: Federico




Carlos è un giovane studente diciassettenne dalla faccia angelica che va alle superiori. Tanto ingenuo e limpido quanto senza regole, è solito entrare per derubare nelle ville quando i legittimi proprietari sono assenti. In famiglia, vive con mamma e papà, la situazione è ben nota, ma tutto tace



The angelic face of Carlos, a 17-year-old teenager, hides a dark facet of robberies, lies and murders.

 






General
Unique ID                                : 199351598918407109600733611618939960837 (0x95F9B8AC7B017B72893563BBF183FE05)
Complete name                            : L'Angelo del crimine - El ángel (201.720p.h264.ita.spa.sub.ita-MIRCrewL'Angelo del crimine - El ángel (201.720p.h264.ita.spa.sub.ita-MIRCrew.mkv
Format                                   : Matroska
Format version                           : Version 2
File size                                : 2.10 GiB
Duration                                 : 1h 54mn
Overall bit rate                         : 2 622 Kbps
Movie name                               : MIRCrew
Encoded date                             : UTC 2019-09-20 12:53:51
Writing application                      : mkvmerge v5.8.0 ('No Sleep / Pillow&#39 built on Sep  2 2012 15:37:04
Writing library                          : Lavf54.63.100
COMMENT                                  : mircrew-releases
COPYRIGHT                                : robbyrs

Video
ID                                       : 1
Format                                   : AVC
Format/Info                              : Advanced Video Codec
Format profile                           : [email protected]
Format settings, CABAC                   : Yes
Format settings, ReFrames                : 2 frames
Codec ID                                 : V_MPEG4/ISO/AVC
Duration                                 : 1h 54mn
Bit rate                                 : 2 000 Kbps
Width                                    : 1 264 pixels
Height                                   : 688 pixels
Display aspect ratio                     : 16:9
Frame rate mode                          : Variable
Frame rate                               : 24.000 fps
Color space                              : YUV
Chroma subsampling                       : 4:2:0
Bit depth                                : 8 bits
Scan type                                : Progressive
Bits/(Pixel*Frame)                       : 0.096
Stream size                              : 1.55 GiB (74%)
Title                                    : MIRCrew
Writing library                          : x264 core 130 r2273
Encoding settings                        : cabac=1 / ref=2 / deblock=1:0:0 / analyse=0x1:0x131 / me=hex / subme=7 / psy=1 / psy_rd=1.00:0.00 / mixed_ref=0 / me_range=16 / chroma_me=1 / trellis=1 / 8x8dct=0 / cqm=0 / deadzone=21,11 / fast_pskip=1 / chroma_qp_offset=-2 / threads=9 / lookahead_threads=1 / sliced_threads=0 / nr=0 / decimate=1 / interlaced=0 / bluray_compat=0 / constrained_intra=0 / bframes=3 / b_pyramid=0 / b_adapt=1 / b_bias=0 / direct=3 / weightb=1 / open_gop=0 / weightp=2 / keyint=240 / keyint_min=24 / scenecut=40 / intra_refresh=0 / rc_lookahead=40 / rc=abr / mbtree=1 / bitrate=2000 / ratetol=1.0 / qcomp=0.60 / qpmin=10 / qpmax=69 / qpstep=4 / vbv_maxrate=24000 / vbv_bufsize=24000 / nal_hrd=none / ip_ratio=1.40 / aq=1:1.00
Language                                 : Italian
Default                                  : Yes
Forced                                   : No

Audio #1
ID                                       : 2
Format                                   : AC-3
Format/Info                              : Audio Coding 3
Mode extension                           : CM (complete main)
Codec ID                                 : A_AC3
Duration                                 : 1h 54mn
Bit rate mode                            : Constant
Bit rate                                 : 448 Kbps
Channel(s)                               : 6 channels
Channel positions                        : Front: L C R, Side: L R, LFE
Sampling rate                            : 48.0 KHz
Bit depth                                : 16 bits
Compression mode                         : Lossy
Delay relative to video                  : -42ms
Stream size                              : 367 MiB (17%)
Title                                    : Ita Ac3 5.1
Language                                 : Italian
Default                                  : No
Forced                                   : No

Audio #2
ID                                       : 3
Format                                   : AC-3
Format/Info                              : Audio Coding 3
Mode extension                           : CM (complete main)
Codec ID                                 : A_AC3
Duration                                 : 1h 54mn
Bit rate mode                            : Constant
Bit rate                                 : 192 Kbps
Channel(s)                               : 2 channels
Channel positions                        : Front: L R
Sampling rate                            : 48.0 KHz
Bit depth                                : 16 bits
Compression mode                         : Lossy
Delay relative to video                  : -5ms
Stream size                              : 157 MiB (7%)
Title                                    : Spa Ac3 2.0
Language                                 : Spanish
Default                                  : No
Forced                                   : No

Menu
00:00:00.000                             : :00:00:00.000
00:07:59.333                             : :00:07:59.333
00:18:03.833                             : :00:18:03.833
00:25:11.458                             : :00:25:11.458
00:38:42.167                             : :00:38:42.167
00:44:28.333                             : :00:44:28.333
00:54:37.208                             : :00:54:37.208
01:06:31.917                             : :01:06:31.917
01:16:35.042                             : :01:16:35.042
01:27:43.167                             : :01:27:43.167
01:39:34.667                             : :01:39:34.667
01:49:33.542                             : :01:49:33.542




Info: Per scaricare devi usare un client come uTorrent o Transmission
AnnounceURL
udp://tracker.coppersurfer.tk:6969/announce
Hash a4bb630a732c55f4ba7a8a1510a7806601bd0068
Peers seeds: 76 , leech: 55
Size 2.10 GB
Completato 206x
Aggiunto 21.09.19 - 08:09:16
Uploader   robbyrs
Votazione (Voti: 0)


Condividi questo bittorrent:


html/blog:


bbcode/forum:




Aggiungi Commento