Loading...
 * Dettagli Torrent   globale  | Commenti (0) 


- X-Men - Dark Phoenix (2019).720p.H264.ita.eng.Ac3-5.1.sub.ita.eng-MIRCrew -


Download via torrent:
Categoria bittorrent BDRip
Descrizione
X-Men - Dark Phoenix (2019).720p.H264.ita.eng.Ac3-5.1.sub.ita.eng-MIRCrew









NO FOUND ONLY ORIGINAL RELEASE


My release is always in double track audio italian and Original audio
for select it use VLC or dvd player home
not use wmp

X-Men - Dark Phoenix (2019)

Quality MIRCrew on HD 720p da 2,4 gb










Titolo originale Dark Phoenix
Lingua originale inglese
Paese di produzione Stati Uniti d'America
Anno 2019
Durata 114 min
Rapporto 2,39:1
Genere azione, fantascienza, avventura
Regia Simon Kinberg
Soggetto personaggi creati da Jack Kirby e Stan Lee
dai fumetti di John Byrne, Chris Claremont, Dave Cockrum
Sceneggiatura Simon Kinberg



   James McAvoy: Charles Xavier / Professor X
   Michael Fassbender: Erik Lehnsherr / Magneto
   Jennifer Lawrence: Raven Darkhölme / Mystica
   Nicholas Hoult: Hank McCoy / Bestia
   Sophie Turner: Jean Grey / Fenice Nera
   Tye Sheridan: Scott Summers / Ciclope
   Alexandra Shipp: Ororo Munroe / Tempesta
   Kodi Smit-McPhee: Kurt Wagner / Nightcrawler
   Evan Peters: Peter Maximoff / Quicksilver
   Jessica Chastain: Vuk



Nel 1975, una Jean Grey ancora bambina usa inavvertitamente la sua telecinesi causando un incidente stradale dove muoiono i suoi genitori. Poco dopo, il professor Charles Xavier la porta alla sua scuola per giovani dotati, dove blocca mentalmente il ricordo dell'incidente e la aiuta a perfezionare le sue abilità psichiche.



Jean Grey begins to develop incredible powers that corrupt and turn her into a Dark Phoenix. Now the X-Men will have to decide if the life of a team member is worth more than all of humanity

 





General
Complete name                            : X-Men - Dark Phoenix (2019).720p-MIRCrewX-Men - Dark Phoenix (2019).720p.ita.eng.sub.ita.eng-MIRCrew.mkv
Format                                   : Matroska
Format version                           : Version 2
File size                                : 2.38 GiB
Duration                                 : 1h 53mn
Overall bit rate                         : 2 986 Kbps
Movie name                               : MIRCrew
Encoded date                             : UTC 2019-09-01 18:26:14
Writing application                      : mkvmerge v5.8.0 ('No Sleep / Pillow&#39 built on Sep  2 2012 15:37:04
Writing library                          : Lavf54.63.100
COMMENT                                  : mircrew-releases

Video
ID                                       : 1
Format                                   : AVC
Format/Info                              : Advanced Video Codec
Format profile                           : [email protected]
Format settings, CABAC                   : Yes
Format settings, ReFrames                : 2 frames
Codec ID                                 : V_MPEG4/ISO/AVC
Duration                                 : 1h 53mn
Bit rate                                 : 2 100 Kbps
Width                                    : 1 280 pixels
Height                                   : 720 pixels
Display aspect ratio                     : 16:9
Frame rate mode                          : Variable
Frame rate                               : 23.976 fps
Color space                              : YUV
Chroma subsampling                       : 4:2:0
Bit depth                                : 8 bits
Scan type                                : Progressive
Bits/(Pixel*Frame)                       : 0.095
Stream size                              : 1.62 GiB (68%)
Title                                    : MIRCrew
Writing library                          : x264 core 130 r2273
Encoding settings                        : cabac=1 / ref=2 / deblock=1:0:0 / analyse=0x1:0x131 / me=hex / subme=7 / psy=1 / psy_rd=1.00:0.00 / mixed_ref=0 / me_range=16 / chroma_me=1 / trellis=1 / 8x8dct=0 / cqm=0 / deadzone=21,11 / fast_pskip=1 / chroma_qp_offset=-2 / threads=9 / lookahead_threads=1 / sliced_threads=0 / nr=0 / decimate=1 / interlaced=0 / bluray_compat=0 / constrained_intra=0 / bframes=3 / b_pyramid=0 / b_adapt=1 / b_bias=0 / direct=3 / weightb=1 / open_gop=0 / weightp=2 / keyint=230 / keyint_min=23 / scenecut=40 / intra_refresh=0 / rc_lookahead=40 / rc=abr / mbtree=1 / bitrate=2100 / ratetol=1.0 / qcomp=0.60 / qpmin=10 / qpmax=69 / qpstep=4 / vbv_maxrate=24000 / vbv_bufsize=24000 / nal_hrd=none / ip_ratio=1.40 / aq=1:1.00
Language                                 : Italian
Default                                  : Yes
Forced                                   : No
DURATION                                 : 01:53:56.413000000
NUMBER_OF_FRAMES                         : 163910
NUMBER_OF_BYTES                          : 20999502684
_STATISTICS_WRITING_APP                  : mkvmerge v35.0.0 ('All The Love In The World&#39 64-bit
_STATISTICS_WRITING_DATE_UTC             : 2019-09-01 18:26:14
_STATISTICS_TAGS                         : BPS DURATION NUMBER_OF_FRAMES NUMBER_OF_BYTES

Audio #1
ID                                       : 2
Format                                   : AC-3
Format/Info                              : Audio Coding 3
Mode extension                           : CM (complete main)
Codec ID                                 : A_AC3
Duration                                 : 1h 53mn
Bit rate mode                            : Constant
Bit rate                                 : 448 Kbps
Channel(s)                               : 6 channels
Channel positions                        : Front: L C R, Side: L R, LFE
Sampling rate                            : 48.0 KHz
Bit depth                                : 16 bits
Compression mode                         : Lossy
Delay relative to video                  : -42ms
Stream size                              : 365 MiB (15%)
Title                                    : Ita Ac3 5.1
Language                                 : Italian
Default                                  : No
Forced                                   : No
DURATION                                 : 01:53:56.416000000
NUMBER_OF_FRAMES                         : 213638
NUMBER_OF_BYTES                          : 382839296
_STATISTICS_WRITING_APP                  : mkvmerge v35.0.0 ('All The Love In The World&#39 64-bit
_STATISTICS_WRITING_DATE_UTC             : 2019-09-01 18:26:14
_STATISTICS_TAGS                         : BPS DURATION NUMBER_OF_FRAMES NUMBER_OF_BYTES

Audio #2
ID                                       : 3
Format                                   : AC-3
Format/Info                              : Audio Coding 3
Mode extension                           : CM (complete main)
Codec ID                                 : A_AC3
Duration                                 : 1h 53mn
Bit rate mode                            : Constant
Bit rate                                 : 448 Kbps
Channel(s)                               : 6 channels
Channel positions                        : Front: L C R, Side: L R, LFE
Sampling rate                            : 48.0 KHz
Bit depth                                : 16 bits
Compression mode                         : Lossy
Delay relative to video                  : -5ms
Stream size                              : 365 MiB (15%)
Title                                    : Eng AC3 5.1
Language                                 : English
Default                                  : No
Forced                                   : No

Menu
00:00:00.000                             : :Chapter 01
00:03:28.875                             : :Chapter 02
00:07:34.620                             : :Chapter 03
00:11:42.201                             : :Chapter 04
00:15:44.109                             : :Chapter 05
00:18:37.407                             : :Chapter 06
00:25:24.481                             : :Chapter 07
00:31:40.356                             : :Chapter 08
00:34:19.307                             : :Chapter 09
00:40:07.446                             : :Chapter 10
00:44:36.090                             : :Chapter 11
00:49:07.778                             : :Chapter 12
00:55:38.168                             : :Chapter 13
00:58:57.408                             : :Chapter 14
01:02:57.190                             : :Chapter 15
01:10:40.110                             : :Chapter 16
01:13:42.418                             : :Chapter 17
01:19:33.477                             : :Chapter 18
01:22:35.700                             : :Chapter 19
01:25:49.060                             : :Chapter 20
01:30:38.349                             : :Chapter 21
01:32:48.187                             : :Chapter 22
01:37:59.623                             : :Chapter 23
01:45:01.044                             : :Chapter 24





Info: Per scaricare devi usare un client come uTorrent o Transmission
AnnounceURL
udp://tracker.leechers-paradise.org:6969/announce
Hash 5ef2c604c1cdf086a7dcd67e1795d37c571d83aa
Peers seeds: 175 , leech: 113
Size 2.38 GB
Completato 1732x
Aggiunto 09.09.19 - 22:09:35
Uploader   robbyrs
Votazione (Voti: 1)


Condividi questo bittorrent:


html/blog:


bbcode/forum:




Aggiungi Commento