Loading...
 * Dettagli Torrent   globale  | Commenti (0) 


- Fuoco assassino (1991).720p.H264.ita.eng.Ac3-5.1.sub.ita.eng.spa-MIRCrew -


Download via torrent:
Categoria bittorrent BDRip
Descrizione
Backdraft - Fuoco assassino (1991).720p.H264.ita.eng.Ac3-5.1.sub.ita.eng.spa-MIRCrew


NO FOUND ONLY ORIGINAL RELEASE


My release is always in double track audio italian and Original audio
for select it use VLC or dvd player home
not use wmp

Fuoco assassino - Backdraft

(1991)










Riconoscimenti

   1992 - Premio Oscar
       Nomination Miglior sonoro a Gary Summers, Randy Thom, Gary Rydstrom e Glenn Williams
       Nomination Miglior montaggio sonoro a Gary Rydstrom e Richard Hymns
       Nomination Migliori effetti speciali a Mikael Salomon, Allen Hall, Clay Pinney e Scott Farrar
   1992 - Premio BAFTA
       Nomination Migliori effetti speciali a Mikael Salomon, Allen Hall, Clay Pinney e Scott Farrar
   1992 - MTV Movie Award
       Nomination Miglior film
       Nomination Miglior sequenza d'azione (La sequenza finale del palazzo in fiamme e la fuga nel vecchio tunnel)
   1992 - BMI Film & TV Award
       Miglior colonna sonora a Hans Zimmer

Lingua originale inglese
Paese di produzione Stati Uniti d'America
Anno 1991
Durata 135 min
Rapporto 2.20 : 1
Genere drammatico, thriller
Regia Ron Howard
Soggetto Gregory Widen
Sceneggiatura Gregory Widen



   William Baldwin: Brian McCaffrey
   Kurt Russell: Stephen "Bull" McCaffrey/Dennis McCaffrey
   Robert De Niro: Donald "Ombra" Rimgale
   Donald Sutherland: Ronald Bartel
   Jennifer Jason Leigh: Jennifer Vaitkus
   Scott Glenn: John 'Axe' Adcox
   Rebecca De Mornay: Helen McCaffrey
   Jason Gedrick: Tim Krizminski
   J.T. Walsh: Martin Swayzak



Due fratelli vigili del fuoco in perenne antagonismo dopo la morte del padre, anch'egli pompiere ed eroe, dopo un breve periodo passato a lavorare l'uno a fianco dell'altro, si trovano su due lati della barricata: Stephen è comandante di una squadra, Brian lavora per il comune a fianco di Donald, comandante del reparto dei vigili del fuoco incaricato di indagare sulla natura degli incendi dolosi



Two Chicago firefighter brothers, who don't get along, have to work together while a dangerous arsonist is on the loose.

 





General
Unique ID                                : 239812375973339315584491358345168061147 (0xB46A2EFFE57FCA9BBB1AD0144B2A82DB)
Complete name                            : C:Users
ootDesktopFuoco assassino - Backdraft (1991).720p.h264.ita.sub.eng.spa-MIRCrewFuoco assassino - Backdraft (1991).720p.h264.ita.sub.eng.spa-MIRCrew.mkv
Format                                   : Matroska
Format version                           : Version 2
File size                                : 2.76 GiB
Duration                                 : 2h 17mn
Overall bit rate                         : 2 883 Kbps
Movie name                               : MIRCrew
Encoded date                             : UTC 2019-08-10 14:45:18
Writing application                      : mkvmerge v5.8.0 ('No Sleep / Pillow&#39 built on Sep  2 2012 15:37:04
Writing library                          : Lavf54.63.100
COMMENT                                  : mircrew-releases

Video
ID                                       : 1
Format                                   : AVC
Format/Info                              : Advanced Video Codec
Format profile                           : [email protected]
Format settings, CABAC                   : Yes
Format settings, ReFrames                : 2 frames
Codec ID                                 : V_MPEG4/ISO/AVC
Duration                                 : 2h 17mn
Bit rate                                 : 2 000 Kbps
Width                                    : 1 280 pixels
Height                                   : 544 pixels
Display aspect ratio                     : 2.35:1
Frame rate mode                          : Variable
Frame rate                               : 23.976 fps
Color space                              : YUV
Chroma subsampling                       : 4:2:0
Bit depth                                : 8 bits
Scan type                                : Progressive
Bits/(Pixel*Frame)                       : 0.120
Stream size                              : 1.85 GiB (67%)
Title                                    : MIRCrew
Writing library                          : x264 core 130 r2273
Encoding settings                        : cabac=1 / ref=2 / deblock=1:0:0 / analyse=0x1:0x131 / me=hex / subme=7 / psy=1 / psy_rd=1.00:0.00 / mixed_ref=0 / me_range=16 / chroma_me=1 / trellis=1 / 8x8dct=0 / cqm=0 / deadzone=21,11 / fast_pskip=1 / chroma_qp_offset=-2 / threads=9 / lookahead_threads=1 / sliced_threads=0 / nr=0 / decimate=1 / interlaced=0 / bluray_compat=0 / constrained_intra=0 / bframes=3 / b_pyramid=0 / b_adapt=1 / b_bias=0 / direct=3 / weightb=1 / open_gop=0 / weightp=2 / keyint=230 / keyint_min=23 / scenecut=40 / intra_refresh=0 / rc_lookahead=40 / rc=abr / mbtree=1 / bitrate=2000 / ratetol=1.0 / qcomp=0.60 / qpmin=10 / qpmax=69 / qpstep=4 / vbv_maxrate=24000 / vbv_bufsize=24000 / nal_hrd=none / ip_ratio=1.40 / aq=1:1.00
Language                                 : Italian
Default                                  : Yes
Forced                                   : No
_STATISTICS_WRITING_APP                  : mkvmerge v7.6.0 ('Garden of Dreams&#39 64bit built on Feb  8 2015 15:12:28
_STATISTICS_WRITING_DATE_UTC             : 2018-03-19 12:14:50
_STATISTICS_TAGS                         : BPS DURATION NUMBER_OF_FRAMES NUMBER_OF_BYTES
DURATION                                 : 02:17:17.480000000
NUMBER_OF_FRAMES                         : 197502
NUMBER_OF_BYTES                          : 5879202488

Audio #1
ID                                       : 2
Format                                   : AC-3
Format/Info                              : Audio Coding 3
Mode extension                           : CM (complete main)
Codec ID                                 : A_AC3
Duration                                 : 2h 17mn
Bit rate mode                            : Constant
Bit rate                                 : 448 Kbps
Channel(s)                               : 6 channels
Channel positions                        : Front: L C R, Side: L R, LFE
Sampling rate                            : 48.0 KHz
Bit depth                                : 16 bits
Compression mode                         : Lossy
Delay relative to video                  : -5ms
Stream size                              : 440 MiB (16%)
Title                                    : Ita Ac3 5.1
Language                                 : Italian
Default                                  : Yes
Forced                                   : Yes
_STATISTICS_WRITING_APP                  : mkvmerge v7.6.0 ('Garden of Dreams&#39 64bit built on Feb  8 2015 15:12:28
_STATISTICS_WRITING_DATE_UTC             : 2018-03-19 12:14:50
_STATISTICS_TAGS                         : BPS DURATION NUMBER_OF_FRAMES NUMBER_OF_BYTES
DURATION                                 : 02:17:17.408000000
NUMBER_OF_FRAMES                         : 257419
NUMBER_OF_BYTES                          : 658992640

Audio #2
ID                                       : 3
Format                                   : AC-3
Format/Info                              : Audio Coding 3
Mode extension                           : CM (complete main)
Codec ID                                 : A_AC3
Duration                                 : 2h 17mn
Bit rate mode                            : Constant
Bit rate                                 : 448 Kbps
Channel(s)                               : 6 channels
Channel positions                        : Front: L C R, Side: L R, LFE
Sampling rate                            : 48.0 KHz
Bit depth                                : 16 bits
Compression mode                         : Lossy
Delay relative to video                  : -5ms
Stream size                              : 440 MiB (16%)
Title                                    : Eng Ac3 5.1
Language                                 : English
Default                                  : No
Forced                                   : No
_STATISTICS_WRITING_APP                  : mkvmerge v7.6.0 ('Garden of Dreams&#39 64bit built on Feb  8 2015 15:12:28
_STATISTICS_WRITING_DATE_UTC             : 2018-03-19 12:14:50
_STATISTICS_TAGS                         : BPS DURATION NUMBER_OF_FRAMES NUMBER_OF_BYTES
DURATION                                 : 02:17:17.536000000
NUMBER_OF_FRAMES                         : 257423
NUMBER_OF_BYTES                          : 659002880

Menu
00:00:00.000                             : :Main Titel: Chicago 1971
00:05:50.683                             : :20 years later
00:15:46.654                             : :The brother's McCaffrey
00:18:25.813                             : :The first day
00:39:06.093                             : :The retirement party
00:48:03.714                             : :The probie's life
00:51:57.072                             : :Time to move on
00:59:26.563                             : est control
01:03:27.845                             : :A new kind of arson
01:14:43.228                             : :The next victim
01:24:18.386                             : :The essence of fire
01:38:28.652                             : :The expert's opinion
01:42:03.158                             : :The path to a killer
01:51:51.371                             : ancing with the beast
02:03:19.558                             : :The fireman's farewell
02:07:11.081                             : :Back on the line (End titles)






Info: Per scaricare devi usare un client come uTorrent o Transmission
AnnounceURL
udp://tracker.opentrackr.org:1337/announce
Hash 61cb8a1d2fdade4a1e086c10f22455f4f15dd597
Peers seeds: 14 , leech: 2
Size 2.76 GB
Completato 294x
Aggiunto 10.08.19 - 18:08:58
Uploader   robbyrs
Votazione (Voti: 0)


Condividi questo bittorrent:


html/blog:


bbcode/forum:




Aggiungi Commento