Loading...
 * Dettagli Torrent   globale  | Commenti (0) 


- Backdraft 2 Fuoco assassino (2019).H264.ita.eng.Ac3-5.1.sub.ita.eng-MIRCrew -


Download via torrent:
Categoria bittorrent BDRip
Descrizione
venite a trovarci su mircrew-releases

Backdraft 2 Fuoco assassino (2019).H264.ita.eng.Ac3-5.1.sub.ita.eng-MIRCrew


NO FOUND ONLY ORIGINAL RELEASE


My release is always in double track audio italian and Original audio
for select it use VLC or dvd player home
not use wmp

Backdraft 2 Fuoco assassino (2019 )









Directed by Gonzalo López-Gallego
Produced by Raffaella De Laurentiis
Written by Gregory Widen
Music by Randy Edelman
Cinematography José David Montero
Release date May 14, 2019 (United States)
Running time 101 minutes
Country United States



   Joe Anderson as Sean McCaffrey
   William Baldwin as Brian McCaffrey
   Donald Sutherland as Ronald Bartel
   Alisha Bailey as Maggie Rening
   Alastair Mackenzie as Captain White



I  cattivi, stavolta, saranno agenti governativi che tentano di contrabbandare un missile fuori dagli Stati Uniti usando una serie di incendi come copertura. E se avete la sensazione che la trama sembri concepita in un episodio dei Simpson, non avete tutti i torti. Anni fa avevamo incontrato Ron Howard, e gli avevamo chiesto di impedire con tutte le sue forze un remake di Fuoco assassino. “Non posso fermarli se lo faranno”, ci aveva risposto



The sequel to the 1991 hit, follows an investigator with the Chicago F.D., who has to track down an arms dealer who use deadly fires as a distraction.

 








General
Unique ID                                : 132853350515870879716591729170222049810 (0x63F29FE597F02B666C8EF45883626A12)
Complete name                            : Backdraft 2 Fuoco assassino 2 (2019).SD.H264.ita.eng.sub.ita.eng-MIRCrewBackdraft 2 Fuoco assassino 2 (2019).SD.H264.ita.eng.sub.ita.eng-MIRCrew.mkv
Format                                   : Matroska
Format version                           : Version 2
File size                                : 1.55 GiB
Duration                                 : 1h 41mn
Overall bit rate                         : 2 179 Kbps
Movie name                               : MIRCrew
Encoded date                             : UTC 2019-07-25 15:02:50
Writing application                      : Lavf54.63.100
Writing library                          : Lavf54.63.100
COMMENT                                  : mircrew-releases

Video
ID                                       : 1
Format                                   : AVC
Format/Info                              : Advanced Video Codec
Format profile                           : [email protected]
Format settings, CABAC                   : Yes
Format settings, ReFrames                : 2 frames
Codec ID                                 : V_MPEG4/ISO/AVC
Duration                                 : 1h 41mn
Bit rate                                 : 1 300 Kbps
Width                                    : 720 pixels
Height                                   : 352 pixels
Display aspect ratio                     : 2.000
Frame rate mode                          : Variable
Frame rate                               : 23.976 fps
Color space                              : YUV
Chroma subsampling                       : 4:2:0
Bit depth                                : 8 bits
Scan type                                : Progressive
Bits/(Pixel*Frame)                       : 0.214
Stream size                              : 903 MiB (57%)
Writing library                          : x264 core 130 r2273
Encoding settings                        : cabac=1 / ref=2 / deblock=1:0:0 / analyse=0x1:0x131 / me=hex / subme=7 / psy=1 / psy_rd=1.00:0.00 / mixed_ref=0 / me_range=16 / chroma_me=1 / trellis=1 / 8x8dct=0 / cqm=0 / deadzone=21,11 / fast_pskip=1 / chroma_qp_offset=-2 / threads=9 / lookahead_threads=1 / sliced_threads=0 / nr=0 / decimate=1 / interlaced=0 / bluray_compat=0 / constrained_intra=0 / bframes=3 / b_pyramid=0 / b_adapt=1 / b_bias=0 / direct=3 / weightb=1 / open_gop=0 / weightp=2 / keyint=230 / keyint_min=23 / scenecut=40 / intra_refresh=0 / rc_lookahead=40 / rc=abr / mbtree=1 / bitrate=1300 / ratetol=1.0 / qcomp=0.60 / qpmin=10 / qpmax=69 / qpstep=4 / vbv_maxrate=24000 / vbv_bufsize=24000 / nal_hrd=none / ip_ratio=1.40 / aq=1:1.00
Default                                  : Yes
Forced                                   : No
DURATION                                 : 01:41:51.773000000
NUMBER_OF_FRAMES                         : 146536
NUMBER_OF_BYTES                          : 2104687366
_STATISTICS_WRITING_APP                  : mkvmerge v15.0.0 ('Duel with the Devil&#39 64-bit
_STATISTICS_WRITING_DATE_UTC             : 2019-07-25 15:02:50
_STATISTICS_TAGS                         : BPS DURATION NUMBER_OF_FRAMES NUMBER_OF_BYTES

Audio #1
ID                                       : 2
Format                                   : AC-3
Format/Info                              : Audio Coding 3
Mode extension                           : CM (complete main)
Codec ID                                 : A_AC3
Duration                                 : 1h 41mn
Bit rate mode                            : Constant
Bit rate                                 : 448 Kbps
Channel(s)                               : 6 channels
Channel positions                        : Front: L C R, Side: L R, LFE
Sampling rate                            : 48.0 KHz
Bit depth                                : 16 bits
Compression mode                         : Lossy
Delay relative to video                  : 1mn 5s
Stream size                              : 326 MiB (21%)
Title                                    : Surround
Language                                 : Italian
Default                                  : Yes
Forced                                   : No
DURATION                                 : 01:41:51.808000000
NUMBER_OF_FRAMES                         : 190994
NUMBER_OF_BYTES                          : 488944640
_STATISTICS_WRITING_APP                  : mkvmerge v15.0.0 ('Duel with the Devil&#39 64-bit
_STATISTICS_WRITING_DATE_UTC             : 2019-07-25 15:02:50
_STATISTICS_TAGS                         : BPS DURATION NUMBER_OF_FRAMES NUMBER_OF_BYTES

Audio #2
ID                                       : 3
Format                                   : AC-3
Format/Info                              : Audio Coding 3
Mode extension                           : CM (complete main)
Codec ID                                 : A_AC3
Duration                                 : 1h 41mn
Bit rate mode                            : Constant
Bit rate                                 : 448 Kbps
Channel(s)                               : 6 channels
Channel positions                        : Front: L C R, Side: L R, LFE
Sampling rate                            : 48.0 KHz
Bit depth                                : 16 bits
Compression mode                         : Lossy
Delay relative to video                  : 1mn 5s
Stream size                              : 326 MiB (21%)
Title                                    : Surround
Language                                 : English
Default                                  : No
Forced                                   : No
DURATION                                 : 01:41:51.776000000
NUMBER_OF_FRAMES                         : 190993
NUMBER_OF_BYTES                          : 488942080
_STATISTICS_WRITING_APP                  : mkvmerge v15.0.0 ('Duel with the Devil&#39 64-bit
_STATISTICS_WRITING_DATE_UTC             : 2019-07-25 15:02:50
_STATISTICS_TAGS                         : BPS DURATION NUMBER_OF_FRAMES NUMBER_OF_BYTES




Info: Per scaricare devi usare un client come uTorrent o Transmission
AnnounceURL
udp://tracker.opentrackr.org:1337/announce
Hash 0b62c113bdf552bd8a397d38e1359e35af9f9d1e
Peers seeds: 23 , leech: 9
Size 1.57 GB
Completato 535x
Aggiunto 10.08.19 - 17:08:50
Uploader   robbyrs
Votazione (Voti: 0)


Condividi questo bittorrent:


html/blog:


bbcode/forum:




Aggiungi Commento