Loading...
 * Dettagli Torrent   globale  | Commenti (0) 


- Teneramente folle - Infinitely Polar Bear (2014).720p.H264.ita.eng.Ac3-5.1.sub.ita.eng-MIRCrew -


Download via torrent:
Categoria bittorrent BDRip
Descrizione
venite a trovarci su mircrew-releases

Teneramente folle - Infinitely Polar Bear (2014).720p.H264.ita.eng.Ac3-5.1.sub.ita.eng-MIRCrew

NO FOUND ONLY ORIGINAL RELEASE



My release is always in double track audio italian and Original audio
for select it use VLC or dvd player home
not use wmp

Teneramente folle - Infinitely Polar Bear (2014)

Quality MIRCrew on HD 720p da 1,8 gb










Titolo originale Infinitely Polar Bear
Paese di produzione Stati Uniti d'America
Anno 2014
Durata 90 min
Genere commedia, drammatico
Regia Maya Forbes
Sceneggiatura Maya Forbes
Distribuzione in italiano Good Films
Fotografia Bobby Bukowski
Montaggio Michael R. Miller
Musiche Theodore Shapiro
Scenografia Carl Sprague e Jennifer Engel



   Mark Ruffalo : Cameron "Cam" Stuart
   Zoe Saldana : Maggie Stuart
   Imogene Wolodarsky : Amelia Stuart
   Ashley Aufderheide : Faith Stuart
   Nekhebet Kum Juch : Kim
   Manoah Angelo : Thurgood
   Muriel Gould : Gaga Stuart
   H. Tod Randolph : Ruth-Ann
   Beth Dixon : Pauline Stuart
   Keir Dullea : Murray Stuart
   Wallace Wolodarsky : Peter



Boston, 1978. Cam Stuart soffre di disturbo bipolare, patologia che gli ha fatto perdere il posto di lavoro, e viene ricoverato per qualche settimana in una clinica psichiatrica. Quando esce, la moglie Maggie lo informa che ha deciso di trasferirsi a New York per frequentare un master universitario di 18 mesi in business administration.



A father struggling with bipolar disorder tries to win back his wife by attempting to take full responsibility of their two young, spirited daughters, who don't make the overwhelming task any easier.

 





General

Complete name                            : Teneramente folle - Infinitely Polar Bear (2015).720p.ita.eng.sub.ita.eng-MIRCrewTeneramente folle - Infinitely Polar Bear (2015).720p.ita.eng.sub.ita.eng-MIRCrew.mkv
Format                                   : Matroska
Format version                           : Version 2
File size                                : 1.77 GiB
Duration                                 : 1h 28mn
Overall bit rate                         : 2 872 Kbps
Movie name                               : MIRCrew
Encoded date                             : UTC 2018-02-20 22:59:30
Writing application                      : mkvmerge v5.8.0 ('No Sleep / Pillow&#39 built on Sep  2 2012 15:37:04
Writing library                          : Lavf54.63.100
COMMENT                                  : mircrew-releases

Video
ID                                       : 1
Format                                   : AVC
Format/Info                              : Advanced Video Codec
Format profile                           : [email protected]
Format settings, CABAC                   : Yes
Format settings, ReFrames                : 2 frames
Codec ID                                 : V_MPEG4/ISO/AVC
Duration                                 : 1h 28mn
Bit rate                                 : 2 000 Kbps
Width                                    : 1 280 pixels
Height                                   : 696 pixels
Display aspect ratio                     : 16:9
Frame rate mode                          : Variable
Frame rate                               : 23.976 fps
Color space                              : YUV
Chroma subsampling                       : 4:2:0
Bit depth                                : 8 bits
Scan type                                : Progressive
Bits/(Pixel*Frame)                       : 0.094
Stream size                              : 1.18 GiB (67%)
Title                                    : MIRCrew
Writing library                          : x264 core 130 r2273
Encoding settings                        : cabac=1 / ref=2 / deblock=1:0:0 / analyse=0x1:0x131 / me=hex / subme=7 / psy=1 / psy_rd=1.00:0.00 / mixed_ref=0 / me_range=16 / chroma_me=1 / trellis=1 / 8x8dct=0 / cqm=0 / deadzone=21,11 / fast_pskip=1 / chroma_qp_offset=-2 / threads=9 / lookahead_threads=1 / sliced_threads=0 / nr=0 / decimate=1 / interlaced=0 / bluray_compat=0 / constrained_intra=0 / bframes=3 / b_pyramid=0 / b_adapt=1 / b_bias=0 / direct=3 / weightb=1 / open_gop=0 / weightp=2 / keyint=230 / keyint_min=23 / scenecut=40 / intra_refresh=0 / rc_lookahead=40 / rc=abr / mbtree=1 / bitrate=2000 / ratetol=1.0 / qcomp=0.60 / qpmin=10 / qpmax=69 / qpstep=4 / vbv_maxrate=24000 / vbv_bufsize=24000 / nal_hrd=none / ip_ratio=1.40 / aq=1:1.00
Language                                 : Italian
Default                                  : Yes
Forced                                   : No
DURATION                                 : 01:28:04.238000000
NUMBER_OF_FRAMES                         : 126695
NUMBER_OF_BYTES                          : 6039126436
_STATISTICS_WRITING_APP                  : mkvmerge v20.0.0 ('I Am The Sun&#39 64-bit
_STATISTICS_WRITING_DATE_UTC             : 2018-02-20 22:59:30
_STATISTICS_TAGS                         : BPS DURATION NUMBER_OF_FRAMES NUMBER_OF_BYTES

Audio #1
ID                                       : 2
Format                                   : AC-3
Format/Info                              : Audio Coding 3
Mode extension                           : CM (complete main)
Codec ID                                 : A_AC3
Duration                                 : 1h 28mn
Bit rate mode                            : Constant
Bit rate                                 : 448 Kbps
Channel(s)                               : 6 channels
Channel positions                        : Front: L C R, Side: L R, LFE
Sampling rate                            : 48.0 KHz
Bit depth                                : 16 bits
Compression mode                         : Lossy
Delay relative to video                  : -5ms
Stream size                              : 282 MiB (16%)
Title                                    : Ita Ac3 5.1
Language                                 : Italian
Default                                  : Yes
Forced                                   : No
DURATION                                 : 01:28:07.040000000
NUMBER_OF_FRAMES                         : 165220
NUMBER_OF_BYTES                          : 296074240
_STATISTICS_WRITING_APP                  : mkvmerge v20.0.0 ('I Am The Sun&#39 64-bit
_STATISTICS_WRITING_DATE_UTC             : 2018-02-20 22:59:30
_STATISTICS_TAGS                         : BPS DURATION NUMBER_OF_FRAMES NUMBER_OF_BYTES

Audio #2
ID                                       : 3
Format                                   : AC-3
Format/Info                              : Audio Coding 3
Mode extension                           : CM (complete main)
Codec ID                                 : A_AC3
Duration                                 : 1h 28mn
Bit rate mode                            : Constant
Bit rate                                 : 448 Kbps
Channel(s)                               : 6 channels
Channel positions                        : Front: L C R, Side: L R, LFE
Sampling rate                            : 48.0 KHz
Bit depth                                : 16 bits
Compression mode                         : Lossy
Delay relative to video                  : -5ms
Stream size                              : 282 MiB (16%)
Title                                    : Eng Ac3 5.1
Language                                 : English
Default                                  : No
Forced                                   : No
DURATION                                 : 01:28:04.288000000
NUMBER_OF_FRAMES                         : 165134
NUMBER_OF_BYTES                          : 422743040
_STATISTICS_WRITING_APP                  : mkvmerge v20.0.0 ('I Am The Sun&#39 64-bit
_STATISTICS_WRITING_DATE_UTC             : 2018-02-20 22:59:30
_STATISTICS_TAGS                         : BPS DURATION NUMBER_OF_FRAMES NUMBER_OF_BYTES




Info: Per scaricare devi usare un client come uTorrent o Transmission
AnnounceURL
udp://tracker.torrent.eu.org:451/announce
Hash cee42a1aef72a653364f79fce00f7c8d5bc7f145
Peers seeds: 11 , leech: 2
Size 1.77 GB
Completato 53x
Aggiunto 09.08.19 - 20:08:48
Uploader   robbyrs
Votazione (Voti: 0)


Condividi questo bittorrent:


html/blog:


bbcode/forum:




Aggiungi Commento