Loading...
 * Dettagli Torrent   globale  | Commenti (0) 


- Highwaymen - L ultima imboscata (2019).720p.H264.ita.eng.Ac3-5.1.sub.ita-MIRCrew -


Download via torrent:
Categoria bittorrent BDRip
Descrizione
visitate mircrew-releases

The Highwaymen - Highwaymen - L ultima imboscata (2019).720p.H264.ita.eng.Ac3-5.1.sub.ita-MIRCrew



NO FOUND ONLY ORIGINAL RELEASE



My release is always in double track audio italian and Original audio
for select it use VLC or dvd player home
not use wmp

Highwaymen - L ultima imboscata - The Highwaymen (2019)

Quality MIRCrew on HD 720p da  2,6 gb










Titolo originale The Highwaymen
Lingua originale inglese
Paese di produzione Stati Uniti d'America
Anno 2019
Durata 132 min
Rapporto 2,39 : 1
Genere poliziesco, drammatico, thriller
Regia John Lee Hancock
Sceneggiatura John Fusco



   Kevin Costner: Frank Hamer
   Woody Harrelson: Maney Gault
   Kathy Bates: governatrice Ma Ferguson
   Kim Dickens: Gladys Hamer
   John Carroll Lynch: Lee Simmons
   W. Earl Brown: Ivy Methvin
   Thomas Mann: Ted Hinton
   William Sadler: Henry Barrow



Bonnie e Clyde imperversano nel paese da due anni e la governatrice del Texas Miriam A. Ferguson riunisce tutti i vertici di polizia e collaboratori per discutere su come catturarli.



A pair of Texas Rangers come out of retirement to catch the infamous outlaws Bonnie and Clyde.

 





General
Unique ID                                : 287343995151286968794630575646158030304 (0xD82C70C1FF73C4DAB0A596D0006B05E0)
Complete name                            : Highwaymen - L'ultima imboscata (2019).720p.h264.ita.eng.sub.ita-MIRCrewHighwaymen - L'ultima imboscata (2019).720p.h264.ita.eng.sub.ita-MIRCrew.mkv
Format                                   : Matroska
Format version                           : Version 4 / Version 2
File size                                : 2.57 GiB
Duration                                 : 2h 12mn
Overall bit rate                         : 2 777 Kbps
Movie name                               : MIRCrew
Encoded date                             : UTC 1970-01-01 00:00:02
Writing application                      : mkvmerge v26.0.0 ('In The Game&#39 64-bit
Writing library                          : Lavf54.63.100
COMMENT                                  : mircrew-releases

Video
ID                                       : 1
Format                                   : AVC
Format/Info                              : Advanced Video Codec
Format profile                           : [email protected]
Format settings, CABAC                   : Yes
Format settings, ReFrames                : 2 frames
Codec ID                                 : V_MPEG4/ISO/AVC
Duration                                 : 2h 12mn
Bit rate                                 : 1 900 Kbps
Width                                    : 1 280 pixels
Height                                   : 528 pixels
Display aspect ratio                     : 2.40:1
Frame rate mode                          : Variable
Frame rate                               : 24.000 fps
Color space                              : YUV
Chroma subsampling                       : 4:2:0
Bit depth                                : 8 bits
Scan type                                : Progressive
Bits/(Pixel*Frame)                       : 0.117
Stream size                              : 1.69 GiB (66%)
Title                                    : MIRCrew
Writing library                          : x264 core 130 r2273
Encoding settings                        : cabac=1 / ref=2 / deblock=1:0:0 / analyse=0x1:0x131 / me=hex / subme=7 / psy=1 / psy_rd=1.00:0.00 / mixed_ref=0 / me_range=16 / chroma_me=1 / trellis=1 / 8x8dct=0 / cqm=0 / deadzone=21,11 / fast_pskip=1 / chroma_qp_offset=-2 / threads=6 / lookahead_threads=1 / sliced_threads=0 / nr=0 / decimate=1 / interlaced=0 / bluray_compat=0 / constrained_intra=0 / bframes=3 / b_pyramid=0 / b_adapt=1 / b_bias=0 / direct=3 / weightb=1 / open_gop=0 / weightp=2 / keyint=240 / keyint_min=24 / scenecut=40 / intra_refresh=0 / rc_lookahead=40 / rc=abr / mbtree=1 / bitrate=1900 / ratetol=1.0 / qcomp=0.60 / qpmin=10 / qpmax=69 / qpstep=4 / vbv_maxrate=24000 / vbv_bufsize=24000 / nal_hrd=none / ip_ratio=1.40 / aq=1:1.00
Language                                 : Italian
Default                                  : Yes
Forced                                   : No
DURATION                                 : 02:12:16.042000000
NUMBER_OF_FRAMES                         : 190465
NUMBER_OF_BYTES                          : 1863799630
_STATISTICS_WRITING_APP                  : mkvmerge v26.0.0 ('In The Game&#39 64-bit
_STATISTICS_WRITING_DATE_UTC             : 2019-07-24 06:02:29
_STATISTICS_TAGS                         : BPS DURATION NUMBER_OF_FRAMES NUMBER_OF_BYTES

Audio #1
ID                                       : 2
Format                                   : AC-3
Format/Info                              : Audio Coding 3
Mode extension                           : CM (complete main)
Codec ID                                 : A_AC3
Duration                                 : 2h 12mn
Bit rate mode                            : Constant
Bit rate                                 : 448 Kbps
Channel(s)                               : 6 channels
Channel positions                        : Front: L C R, Side: L R, LFE
Sampling rate                            : 48.0 KHz
Bit depth                                : 16 bits
Compression mode                         : Lossy
Delay relative to video                  : -5ms
Stream size                              : 424 MiB (16%)
Title                                    : Ita Ac3
Language                                 : Italian
Default                                  : Yes
Forced                                   : No
DURATION                                 : 02:12:16.384000000
NUMBER_OF_FRAMES                         : 248012
NUMBER_OF_BYTES                          : 444437504
_STATISTICS_WRITING_APP                  : mkvmerge v26.0.0 ('In The Game&#39 64-bit
_STATISTICS_WRITING_DATE_UTC             : 2019-07-24 06:02:29
_STATISTICS_TAGS                         : BPS DURATION NUMBER_OF_FRAMES NUMBER_OF_BYTES

Audio #2
ID                                       : 3
Format                                   : AC-3
Format/Info                              : Audio Coding 3
Mode extension                           : CM (complete main)
Codec ID                                 : A_AC3
Duration                                 : 2h 12mn
Bit rate mode                            : Constant
Bit rate                                 : 448 Kbps
Channel(s)                               : 6 channels
Channel positions                        : Front: L C R, Side: L R, LFE
Sampling rate                            : 48.0 KHz
Bit depth                                : 16 bits
Compression mode                         : Lossy
Delay relative to video                  : -5ms
Stream size                              : 424 MiB (16%)
Title                                    : Eng Ac3
Language                                 : English
Default                                  : No
Forced                                   : No
DURATION                                 : 02:12:16.448000000
NUMBER_OF_FRAMES                         : 248014
NUMBER_OF_BYTES                          : 444441088
_STATISTICS_WRITING_APP                  : mkvmerge v26.0.0 ('In The Game&#39 64-bit
_STATISTICS_WRITING_DATE_UTC             : 2019-07-24 06:02:29
_STATISTICS_TAGS                         : BPS DURATION NUMBER_OF_FRAMES NUMBER_OF_BYTES



Info: Per scaricare devi usare un client come uTorrent o Transmission
AnnounceURL
udp://tracker.torrent.eu.org:451/announce
Hash 2bf82d3bf27c758ddb08823d119b056117e83766
Peers seeds: 88 , leech: 21
Size 2.57 GB
Completato 2127x
Aggiunto 25.07.19 - 18:07:22
Uploader   robbyrs
Votazione (Voti: 1)


Condividi questo bittorrent:


html/blog:


bbcode/forum:




Aggiungi Commento