Loading...
 * Dettagli Torrent   globale  | Commenti (0) 


- Shaft! Colpisce Ancora (1972).XviD.ita Mp3 FOUND -


Download via torrent:
Categoria bittorrent BDRip
Descrizione
Shaft! Colpisce Ancora (1972).XviD.ita Mp3 FOUND





Shaft! Colpisce Ancora (1972)









Titolo originale Shaft's Big Score
Lingua originale Lingua inglese
Paese di produzione Stati Uniti d'America
Anno 1972
Durata 104 min
Genere azione, thriller
Regia Gordon Parks
Soggetto Ernest Tidyman
Sceneggiatura Ernest Tidyman



   Richard Roundtree: John Shaft
   Moses Gunn: Bumpy Jonas
   Drew Bundini Brown: Willy
   Joseph Mascolo: Gus Mascola
   Kathy Imrie: Rita
   Wally Taylor: Johnny Kelly
   Julius Harris: Capt. Bollin
   Rosalind Miles: Arna Asby
   Joe Santos: Pascal



Il detective John Shaft stavolta dovrà indagare sull'omicidio di un suo carissimo amico per poter assicurare i colpevoli alla giustizia.



Shaft is back to find the murderer of an old friend on the cold hard city streets with a little help from his new friends.  

 








General
Complete name                            : Shaft Colpisce Ancora 1972.avi
Format                                   : AVI
Format/Info                              : Audio Video Interleave
File size                                : 701 MiB
Duration                                 : 1h 40mn
Overall bit rate mode                    : Variable
Overall bit rate                         : 971 Kbps

Video
ID                                       : 0
Format                                   : MPEG-4 Visual
Format profile                           : Advanced [email protected]
Format settings, BVOP                    : 1
Format settings, QPel                    : No
Format settings, GMC                     : No warppoints
Format settings, Matrix                  : Default (MPEG)
Codec ID                                 : XVID
Codec ID/Hint                            : XviD
Duration                                 : 1h 40mn
Bit rate                                 : 845 Kbps
Width                                    : 592 pixels
Height                                   : 240 pixels
Display aspect ratio                     : 2.467
Frame rate                               : 25.000 fps
Color space                              : YUV
Chroma subsampling                       : 4:2:0
Bit depth                                : 8 bits
Scan type                                : Progressive
Compression mode                         : Lossy
Bits/(Pixel*Frame)                       : 0.238
Stream size                              : 610 MiB (87%)
Writing library                          : XviD 1.2.0.dev47 (UTC 2006-11-01)

Audio
ID                                       : 1
Format                                   : MPEG Audio
Format version                           : Version 1
Format profile                           : Layer 3
Mode                                     : Dual mono
Codec ID                                 : 55
Codec ID/Hint                            : MP3
Duration                                 : 1h 40mn
Bit rate mode                            : Variable
Bit rate                                 : 113 Kbps
Nominal bit rate                         : 120 Kbps
Channel(s)                               : 2 channels
Sampling rate                            : 44.1 KHz
Compression mode                         : Lossy
Stream size                              : 81.7 MiB (12%)
Alignment                                : Aligned on interleaves
Interleave, duration                     : 26 ms (0.65 video frame)
Interleave, preload duration             : 180 ms
Title                                    : Italian
Writing library                          : LAME3.97
Encoding settings                        : -m d -V 4 -q 3 -lowpass 17 --abr 120-m d -V 4 -q 3 -lowpass 17 --abr 120



Info: Per scaricare devi usare un client come uTorrent o Transmission
AnnounceURL
udp://tracker.coppersurfer.tk:6969/announce
Hash 4cda5533cc3d51523cd6dcb31860290d81ce494d
Peers seeds: 11 , leech: 4
Size 700.97 MB
Completato 268x
Aggiunto 10.07.19 - 22:07:39
Uploader   robbyrs
Votazione (Voti: 0)


Condividi questo bittorrent:


html/blog:


bbcode/forum:




Aggiungi Commento