Loading...
 * Dettagli Torrent   globale  | Commenti (0) 


- Marcellino Pane e Vino (1955).720p.H264.ita.ger.spa.Ac3-MIRCrew -


Download via torrent:
Categoria bittorrent BDRip
Descrizione
Visitate mircrew-releases

Marcellino Pane e Vino - Miracle of Marcelino (1955).720p.H264.ita.ger.spa.Ac3-MIRCrew


NO FOUND ONLY ORIGINAL RELEASE



My release is always in double track audio italian and Original audio
for select it use VLC or dvd player home
not use wmp

Marcellino Pane e Vino - Miracle of Marcelino (1955)

Quality MIRCrew on HD 720p da  1,6 gb










Titolo originale Marcelino pan y vino
Paese di produzione Spagna, Italia
Anno 1955
Durata 90 min
Dati tecnici B/N
Genere drammatico
Regia Ladislao Vajda
Soggetto José María Sánchez Silva
Sceneggiatura José María Sánchez Silva, Ladislao Vajda



   Pablito Calvo: Marcellino
   Rafael Rivelles: padre superiore
   José Marco Davó: Pasquale, il sindaco
   Juan Calvo: fra Pappina
   Antonio Vico: frate Porta
   Joaquín Roa: fra Din Don
   Mariano Azaña: fra Malato
   Adriano Domínguez: frate
   Rafael Calvo: don Emilio, il primo sindaco
   Carmen Carbonell: Alfonsa
   Isabel de Pomés: giovane madre
   Francisco Arenzana: Nicola
   Carlota Bilbao: moglie di Nicola
   Fernando Rey: frate narratore; Gesù



Nel giorno di San Marcellino, in Spagna, un frate francescano si reca in paese per andare a visitare una bambina gravemente malata, mentre tutto il paese sta salendo la collina per andare al convento sulla tomba di san Marcellino; il frate inizia a raccontare la storia del convento e di Marcellino.



Marcelino is an orphan who grows up in a monastery. One day when he eats his small meal in a room full of old things he gives a piece of his bread to an old wooden Jesus figure - and indeed...

 





General

Complete name                            : Marcellino Pane e Vino - Miracle of Marcelino (1955).720p.ita.sspa.deu-MIRCrewMarcellino Pane e Vino - Miracle of Marcelino (1955).720p.ita.sspa.deu-MIRCrew.mkv
Format                                   : Matroska
Format version                           : Version 2
File size                                : 1.61 GiB
Duration                                 : 1h 29mn
Overall bit rate                         : 2 577 Kbps
Movie name                               : MIRCrew
Encoded date                             : UTC 2019-07-09 15:54:18
Writing application                      : mkvmerge v5.8.0 ('No Sleep / Pillow&#39 built on Sep  2 2012 15:37:04
Writing library                          : Lavf54.63.100
COMMENT                                  : mircrew-releases

Video
ID                                       : 1
Format                                   : AVC
Format/Info                              : Advanced Video Codec
Format profile                           : [email protected]
Format settings, CABAC                   : Yes
Format settings, ReFrames                : 2 frames
Codec ID                                 : V_MPEG4/ISO/AVC
Duration                                 : 1h 29mn
Bit rate                                 : 2 000 Kbps
Width                                    : 1 280 pixels
Height                                   : 720 pixels
Display aspect ratio                     : 16:9
Frame rate mode                          : Variable
Frame rate                               : 23.976 fps
Color space                              : YUV
Chroma subsampling                       : 4:2:0
Bit depth                                : 8 bits
Scan type                                : Progressive
Bits/(Pixel*Frame)                       : 0.091
Stream size                              : 1.22 GiB (76%)
Title                                    : MIRCrew
Writing library                          : x264 core 130 r2273
Encoding settings                        : cabac=1 / ref=2 / deblock=1:0:0 / analyse=0x1:0x131 / me=hex / subme=7 / psy=1 / psy_rd=1.00:0.00 / mixed_ref=0 / me_range=16 / chroma_me=1 / trellis=1 / 8x8dct=0 / cqm=0 / deadzone=21,11 / fast_pskip=1 / chroma_qp_offset=-2 / threads=9 / lookahead_threads=1 / sliced_threads=0 / nr=0 / decimate=1 / interlaced=0 / bluray_compat=0 / constrained_intra=0 / bframes=3 / b_pyramid=0 / b_adapt=1 / b_bias=0 / direct=3 / weightb=1 / open_gop=0 / weightp=2 / keyint=230 / keyint_min=23 / scenecut=40 / intra_refresh=0 / rc_lookahead=40 / rc=abr / mbtree=1 / bitrate=2000 / ratetol=1.0 / qcomp=0.60 / qpmin=10 / qpmax=69 / qpstep=4 / vbv_maxrate=24000 / vbv_bufsize=24000 / nal_hrd=none / ip_ratio=1.40 / aq=1:1.00
Language                                 : Italian
Default                                  : Yes
Forced                                   : No

Audio #1
ID                                       : 2
Format                                   : AC-3
Format/Info                              : Audio Coding 3
Mode extension                           : CM (complete main)
Codec ID                                 : A_AC3
Duration                                 : 1h 29mn
Bit rate mode                            : Constant
Bit rate                                 : 192 Kbps
Channel(s)                               : 2 channels
Channel positions                        : Front: L R
Sampling rate                            : 48.0 KHz
Bit depth                                : 16 bits
Compression mode                         : Lossy
Delay relative to video                  : -5ms
Stream size                              : 123 MiB (7%)
Title                                    : Ger Ac3
Language                                 : German
Default                                  : No
Forced                                   : No

Audio #2
ID                                       : 3
Format                                   : AC-3
Format/Info                              : Audio Coding 3
Mode extension                           : CM (complete main)
Codec ID                                 : A_AC3
Duration                                 : 1h 29mn
Bit rate mode                            : Constant
Bit rate                                 : 192 Kbps
Channel(s)                               : 2 channels
Channel positions                        : Front: L R
Sampling rate                            : 48.0 KHz
Bit depth                                : 16 bits
Compression mode                         : Lossy
Delay relative to video                  : -5ms
Stream size                              : 123 MiB (7%)
Title                                    : Ita Ac3
Language                                 : Italian
Default                                  : No
Forced                                   : No

Audio #3
ID                                       : 4
Format                                   : AC-3
Format/Info                              : Audio Coding 3
Mode extension                           : CM (complete main)
Codec ID                                 : A_AC3
Duration                                 : 1h 29mn
Bit rate mode                            : Constant
Bit rate                                 : 192 Kbps
Channel(s)                               : 2 channels
Channel positions                        : Front: L R
Sampling rate                            : 48.0 KHz
Bit depth                                : 16 bits
Compression mode                         : Lossy
Delay relative to video                  : -5ms
Stream size                              : 123 MiB (7%)
Title                                    : Spa Ac3 5.1
Language                                 : Spanish
Default                                  : No
Forced                                   : No

Menu
00:00:00.000                             : :Chapter 01
00:08:58.204                             : :Chapter 02
00:13:49.119                             : :Chapter 03
00:18:38.784                             : :Chapter 04
00:24:54.951                             : :Chapter 05
00:28:27.247                             : :Chapter 06
00:42:37.596                             : :Chapter 07
00:51:08.565                             : :Chapter 08
00:58:33.843                             : :Chapter 09
01:06:41.664                             : :Chapter 10
01:11:31.996                             : :Chapter 11
01:24:17.969                             : :Chapter 12
01:29:31.324                             : :Chapter 13


Info: Per scaricare devi usare un client come uTorrent o Transmission
AnnounceURL
udp://tracker.coppersurfer.tk:6969/announce
Hash 0bfd5eb5d1327c404a0aa7e594e9bf0a75f7854f
Peers seeds: 16 , leech: 3
Size 1.61 GB
Completato 453x
Aggiunto 10.07.19 - 17:07:32
Uploader   robbyrs
Votazione (Voti: 0)


Condividi questo bittorrent:


html/blog:


bbcode/forum:




Aggiungi Commento