Loading...
 * Dettagli Torrent   globale  | Commenti (0) 


- Beirut (2018).720p.H264.ita.eng.Ac3-multisub-MIRCrew -


Download via torrent:
Categoria bittorrent BDRip
Descrizione
venite a trovarci su mircrew-releases


Beirut 2018.720p.H264.ita.eng.Ac3-multisub-MIRCrew


NO FOUND ONLY ORIGINAL RELEASE



My release is always in double track audio italian and Original audio
for select it use VLC or dvd player home
not use wmp

Beirut 2018

Quality MIRCrew on HD 720p da  1,5 gb










Lingua originale inglese, arabo
Paese di produzione Stati Uniti d'America
Anno 2018
Durata 110 min
Rapporto 2,35 : 1
Genere thriller, drammatico
Regia Brad Anderson
Sceneggiatura Tony Gilroy



   Jon Hamm: Mason Skiles
   Rosamund Pike: Sandy Crowder
   Shea Whigham: Gary Ruzak
   Dean Norris: Donald Gaines
   Mark Pellegrino: Cal Riley
   Kate Fleetwood: Alice
   Douglas Hodge: Sully
   Jonny Coyne: Bernard Teppler
   Alon Aboutboul: Roni Niv
   Leïla Bekhti: Nadia
   Idir Chender: Karim Abou Rajal
   Mohamed Zouaoui: Fahmi
   Larry Pine: Frank Shalen
   Sonia Okacha: Sondrine
   Ben Affan: Jassim/Rami
   Mohamed Attougui: Raffik



Anni '70. Mason Skiles lavora come diplomatico statunitense a Beirut, dove vive insieme alla moglie Nadia e a Karim, un ragazzo orfano di cui ha deciso di prendersi cura



Caught in the crossfires of civil war, CIA operatives must send a former U.S. diplomat to negotiate for the life of a friend he left behind.

 









General
Unique ID                                : 261289539389719782160356995673470836811 (0xC49288E91586DCC327AD9A2591D4A04B)
Complete name                            : Beirut (201.H264.ita.eng.sub.ita.eng.spa.fre-MIRCrewBeirut (201.H264.ita.eng.sub.ita.eng.spa.fre-MIRCrew.mkv
Format                                   : Matroska
Format version                           : Version 2
File size                                : 1.44 GiB
Duration                                 : 1h 49mn
Overall bit rate                         : 1 884 Kbps
Movie name                               : MIRCrew
Encoded date                             : UTC 2018-09-25 14:41:22
Writing application                      : Lavf54.63.100
Writing library                          : Lavf54.63.100
DATE                                     : 2018

Video
ID                                       : 1
Format                                   : AVC
Format/Info                              : Advanced Video Codec
Format profile                           : [email protected]
Format settings, CABAC                   : Yes
Format settings, ReFrames                : 2 frames
Codec ID                                 : V_MPEG4/ISO/AVC
Duration                                 : 1h 49mn
Bit rate                                 : 1 300 Kbps
Width                                    : 720 pixels
Height                                   : 304 pixels
Display aspect ratio                     : 2.40:1
Frame rate mode                          : Variable
Frame rate                               : 23.976 fps
Color space                              : YUV
Chroma subsampling                       : 4:2:0
Bit depth                                : 8 bits
Scan type                                : Progressive
Bits/(Pixel*Frame)                       : 0.248
Stream size                              : 997 MiB (67%)
Writing library                          : x264 core 130 r2273
Encoding settings                        : cabac=1 / ref=2 / deblock=1:0:0 / analyse=0x1:0x131 / me=hex / subme=7 / psy=1 / psy_rd=1.00:0.00 / mixed_ref=0 / me_range=16 / chroma_me=1 / trellis=1 / 8x8dct=0 / cqm=0 / deadzone=21,11 / fast_pskip=1 / chroma_qp_offset=-2 / threads=6 / lookahead_threads=1 / sliced_threads=0 / nr=0 / decimate=1 / interlaced=0 / bluray_compat=0 / constrained_intra=0 / bframes=3 / b_pyramid=0 / b_adapt=1 / b_bias=0 / direct=3 / weightb=1 / open_gop=0 / weightp=2 / keyint=230 / keyint_min=23 / scenecut=40 / intra_refresh=0 / rc_lookahead=40 / rc=abr / mbtree=1 / bitrate=1300 / ratetol=1.0 / qcomp=0.60 / qpmin=10 / qpmax=69 / qpstep=4 / vbv_maxrate=24000 / vbv_bufsize=24000 / nal_hrd=none / ip_ratio=1.40 / aq=1:1.00
Language                                 : Italian
Default                                  : Yes
Forced                                   : No
DURATION                                 : 01:49:45.250000000

Audio #1
ID                                       : 2
Format                                   : AC-3
Format/Info                              : Audio Coding 3
Mode extension                           : CM (complete main)
Codec ID                                 : A_AC3
Duration                                 : 1h 49mn
Bit rate mode                            : Constant
Bit rate                                 : 192 Kbps
Channel(s)                               : 2 channels
Channel positions                        : Front: L R
Sampling rate                            : 48.0 KHz
Bit depth                                : 16 bits
Compression mode                         : Lossy
Delay relative to video                  : 1mn 5s
Stream size                              : 151 MiB (10%)
Writing library                          : Lavc57.20.100 ac3_fixed
Language                                 : Italian
Default                                  : Yes
Forced                                   : No
DURATION                                 : 01:49:45.248000000

Audio #2
ID                                       : 3
Format                                   : AC-3
Format/Info                              : Audio Coding 3
Mode extension                           : CM (complete main)
Codec ID                                 : A_AC3
Duration                                 : 1h 49mn
Bit rate mode                            : Constant
Bit rate                                 : 384 Kbps
Channel(s)                               : 2 channels
Channel positions                        : Front: L R
Sampling rate                            : 48.0 KHz
Bit depth                                : 16 bits
Compression mode                         : Lossy
Delay relative to video                  : 1mn 5s
Stream size                              : 301 MiB (20%)
Writing library                          : Lavc57.20.100 ac3_fixed
Language                                 : English
Default                                  : No
Forced                                   : No
DURATION                                 : 01:49:45.248000000



Info: Per scaricare devi usare un client come uTorrent o Transmission
AnnounceURL
udp://tracker.coppersurfer.tk:6969/announce
Hash dead60a8c5c7959f23da934d48922be00624cb97
Peers seeds: 62 , leech: 7
Size 1.44 GB
Completato 1999x
Aggiunto 09.07.19 - 17:07:41
Uploader   robbyrs
Votazione (Voti: 0)


Condividi questo bittorrent:


html/blog:


bbcode/forum:




Aggiungi Commento