Loading...
 * Dettagli Torrent   globale  | Commenti (0) 


- Pet Sematary (2019).720p.H264.ita.eng.Ac3-5.1.sub.ita.eng-MIRCrew -


Download via torrent:
Categoria bittorrent BDRip
Descrizione
Pet Sematary 2019.720p.H264.ita.eng.Ac3-5.1.sub.ita.eng-MIRCrew



NO FOUND ONLY ORIGINAL RELEASE

My release is always in double track audio italian and Original audio
for select it use VLC or dvd player home
not use wmp

Pet Sematary 2019

Quality MIRCrew on HD 720p da  2,0 gb










Lingua originale inglese
Paese di produzione Stati Uniti d'America
Anno 2019
Genere orrore
Regia Kevin Kölsch, Dennis Widmyer
Soggetto dal romanzo di Stephen King
Sceneggiatura Jeff Buhler, David Kajganich



   Jason Clarke: Louis Creed
   Amy Seimetz: Rachel Goldman Creed
   John Lithgow: Jud Crandall
   Jeté Laurence: Ellie Creed
   Hugo Lavoie e Lucas Lavoie: Gage Creed
   Obssa Ahmed: Victor Pascow
   Alyssa Brooke Levine: Zelda Goldman
   Suzy Stingl: Norma Crandall
   Maria Herrera: Marcella
   Kelly Lee: Kelly



Louis Creed, medico di Boston, si trasferisce nella città di Ludlow con sua moglie Rachel, i due figli Ellie e Gage ed il loro gatto Winston Churchill, soprannominato "Church". Mentre esplora il bosco intorno alla casa, Ellie si imbatte in un corteo funebre con dei bambini che indossano maschere di animali che portano un cane morto ad un cimitero sul cui arco di ingresso è scritto "Pet Sematary".



Dr. Louis Creed and his wife, Rachel, relocate from Boston to rural Maine with their two young children. The couple soon discover a mysterious burial ground hidden deep in the woods near their new home.

 





General
Unique ID                                : 326654139331527676324809096134233245949 (0xF5BF4C80C1931D05173E9290962D48FD)
Complete name                            : Pet Sematary (2019).720p.ita.eng.sub.ita.eng-MIRCrewPet Sematary (2019).720p.ita.eng.sub.ita.eng-MIRCrew.mkv
Format                                   : Matroska
Format version                           : Version 2
File size                                : 2.02 GiB
Duration                                 : 1h 40mn
Overall bit rate                         : 2 874 Kbps
Movie name                               : MIRCrew
Encoded date                             : UTC 2019-07-04 18:44:12
Writing application                      : Lavf54.63.100
Writing library                          : Lavf54.63.100
COMMENT                                  : MIRCrew-releases

Video
ID                                       : 1
Format                                   : AVC
Format/Info                              : Advanced Video Codec
Format profile                           : [email protected]
Format settings, CABAC                   : Yes
Format settings, ReFrames                : 2 frames
Codec ID                                 : V_MPEG4/ISO/AVC
Duration                                 : 1h 40mn
Bit rate                                 : 2 000 Kbps
Width                                    : 1 280 pixels
Height                                   : 544 pixels
Display aspect ratio                     : 2.40:1
Original display aspect ratio            : 2.40:1
Frame rate mode                          : Variable
Frame rate                               : 23.976 fps
Color space                              : YUV
Chroma subsampling                       : 4:2:0
Bit depth                                : 8 bits
Scan type                                : Progressive
Bits/(Pixel*Frame)                       : 0.120
Stream size                              : 1.35 GiB (67%)
Title                                    : MIRCrew
Writing library                          : x264 core 130 r2273
Encoding settings                        : cabac=1 / ref=2 / deblock=1:0:0 / analyse=0x1:0x131 / me=hex / subme=7 / psy=1 / psy_rd=1.00:0.00 / mixed_ref=0 / me_range=16 / chroma_me=1 / trellis=1 / 8x8dct=0 / cqm=0 / deadzone=21,11 / fast_pskip=1 / chroma_qp_offset=-2 / threads=9 / lookahead_threads=1 / sliced_threads=0 / nr=0 / decimate=1 / interlaced=0 / bluray_compat=0 / constrained_intra=0 / bframes=3 / b_pyramid=0 / b_adapt=1 / b_bias=0 / direct=3 / weightb=1 / open_gop=0 / weightp=2 / keyint=230 / keyint_min=23 / scenecut=40 / intra_refresh=0 / rc_lookahead=40 / rc=abr / mbtree=1 / bitrate=2000 / ratetol=1.0 / qcomp=0.60 / qpmin=10 / qpmax=69 / qpstep=4 / vbv_maxrate=24000 / vbv_bufsize=24000 / nal_hrd=none / ip_ratio=1.40 / aq=1:1.00
Language                                 : Italian
Default                                  : Yes
Forced                                   : No
DURATION                                 : 01:40:49.836000000
NUMBER_OF_FRAMES                         : 145051
NUMBER_OF_BYTES                          : 7727419693
_STATISTICS_WRITING_APP                  : mkvmerge v34.0.0 ('Sight and Seen&#39 64-bit
_STATISTICS_WRITING_DATE_UTC             : 2019-06-29 22:01:18
_STATISTICS_TAGS                         : BPS DURATION NUMBER_OF_FRAMES NUMBER_OF_BYTES

Audio #1
ID                                       : 2
Format                                   : AC-3
Format/Info                              : Audio Coding 3
Mode extension                           : CM (complete main)
Codec ID                                 : A_AC3
Duration                                 : 1h 40mn
Bit rate mode                            : Constant
Bit rate                                 : 448 Kbps
Channel(s)                               : 6 channels
Channel positions                        : Front: L C R, Side: L R, LFE
Sampling rate                            : 48.0 KHz
Bit depth                                : 16 bits
Compression mode                         : Lossy
Delay relative to video                  : 1mn 5s
Stream size                              : 323 MiB (16%)
Title                                    : Ita Ac3 5.1
Language                                 : Italian
Default                                  : Yes
Forced                                   : No

Audio #2
ID                                       : 3
Format                                   : AC-3
Format/Info                              : Audio Coding 3
Mode extension                           : CM (complete main)
Codec ID                                 : A_AC3
Duration                                 : 1h 40mn
Bit rate mode                            : Constant
Bit rate                                 : 448 Kbps
Channel(s)                               : 6 channels
Channel positions                        : Front: L C R, Side: L R, LFE
Sampling rate                            : 48.0 KHz
Bit depth                                : 16 bits
Compression mode                         : Lossy
Delay relative to video                  : 1mn 5s
Stream size                              : 323 MiB (16%)
Title                                    : Eng Ac3 5.1
Language                                 : English
Default                                  : No
Forced                                   : No
DURATION                                 : 01:40:47.808000000
NUMBER_OF_FRAMES                         : 188994
NUMBER_OF_BYTES                          : 483824640
_STATISTICS_WRITING_APP                  : mkvmerge v34.0.0 ('Sight and Seen&#39 64-bit
_STATISTICS_WRITING_DATE_UTC             : 2019-06-29 22:01:18
_STATISTICS_TAGS                         : BPS DURATION NUMBER_OF_FRAMES NUMBER_OF_BYTES

Menu
00:00:00.000                             : :Chapter 01
00:07:16.353                             : :Chapter 02
00:12:14.025                             : :Chapter 03
00:19:38.386                             : :Chapter 04
00:25:30.070                             : :Chapter 05
00:30:09.725                             : :Chapter 06
00:35:18.325                             : :Chapter 07
00:46:02.843                             : :Chapter 08
00:50:44.792                             : :Chapter 09
00:57:47.964                             : :Chapter 10
01:06:57.722                             : :Chapter 11
01:14:12.573                             : :Chapter 12
01:22:52.009                             : :Chapter 13
01:32:19.909                             : :Chapter 14
01:36:41.295                             : :Chapter 15





Info: Per scaricare devi usare un client come uTorrent o Transmission
AnnounceURL
udp://tracker.coppersurfer.tk:6969/announce
Hash 532811d26d2eeae0eb5af6b8c07e6f1082d9fe2c
Peers seeds: 60 , leech: 14
Size 2.02 GB
Completato 1441x
Aggiunto 08.07.19 - 19:07:50
Uploader   robbyrs
Votazione (Voti: 0)


Condividi questo bittorrent:


html/blog:


bbcode/forum:




Aggiungi Commento