Loading...
 * Dettagli Torrent   globale  | Commenti (0) 


- Shazam! (2019).720p.H264.ita.eng.Ac3-5.1.sub.ita-MIRCrew -


Download via torrent:
Categoria bittorrent BDRip
Descrizione
visitate mircrew-releases

Shazam! 2019.720p.H264.ita.eng.Ac3-5.1.sub.ita-MIRCrew


NO FOUND ONLY ORIGINAL RELEASE



My release is always in double track audio italian and Original audio
for select it use VLC or dvd player home
not use wmp

Shazam! 2019

Quality MIRCrew on HD 720p da  2,6 gb










Lingua originale inglese
Paese di produzione Stati Uniti d'America
Anno 2019
Durata 132 min
Rapporto 2,39 : 1
Genere azione, fantascienza, fantastico, commedia
Regia David F. Sandberg
Soggetto personaggio creato da Bill Parker e C.C. Beck
storia di Henry Gayden e Darren Lemke
Sceneggiatura Henry Gayden



   Zachary Levi: Shazam
   Asher Angel: William "Billy" Batson
   Mark Strong: dott. Thaddeus Sivana
   Djimon Hounsou: Mago
   Jack Dylan Grazer: Frederick "Freddy" Freeman
   Grace Fulton: Mary Bromfield
   Ian Chen: Eugene Choi
   Jovan Armand: Pedro Peña
   Faithe Herman: Darla Dudley
   Cooper Andrews: Victor Vasquez
   Marta Milans: Rosa Vasquez
   Andi Osho: Emma Glover
   John Glover: sig. Sivana
   Natalia Safran: sig.ra Sivana
   Adam Brody: Freddy supereroe
   Ross Butler: Eugene supereroe
   Meagan Good: Darla supereroe
   Michelle Borth: Mary supereroe
   D. J. Cotrona: Pedro supereroe



Nel 1974, nello stato di New York, il giovane Thaddeus Sivana sta litigando in auto con il padre e il fratello quando viene trasportato magicamente alla Roccia dell'Eternità, un tempio magico nascosto in un'altra dimensione. Qui incontra il mago Shazam, l'ultimo del Consiglio dei Sette Maghi e...............



We all have a superhero inside us, it just takes a bit of magic to bring it out. In Billy Batson's case, by shouting out one word - SHAZAM - this streetwise fourteen-year-old foster kid can turn into the grown-up superhero Shazam.

 





General

Complete name                            : Shazam (2019).720p.H264.ita.eng.sub.ita.eng-MIRCrewShazam (2019).720p.H264.ita.eng.sub.ita.eng-MIRCrew.mkv
Format                                   : Matroska
Format version                           : Version 2
File size                                : 2.65 GiB
Duration                                 : 2h 11mn
Overall bit rate                         : 2 885 Kbps
Movie name                               : MIRCrew
Encoded date                             : UTC 2019-07-06 08:01:18
Writing application                      : mkvmerge v5.8.0 ('No Sleep / Pillow&#39 built on Sep  2 2012 15:37:04
Writing library                          : Lavf54.63.100
COMMENT                                  : mircrew-releases

Video
ID                                       : 1
Format                                   : AVC
Format/Info                              : Advanced Video Codec
Format profile                           : [email protected]
Format settings, CABAC                   : Yes
Format settings, ReFrames                : 2 frames
Codec ID                                 : V_MPEG4/ISO/AVC
Duration                                 : 2h 11mn
Bit rate                                 : 2 000 Kbps
Width                                    : 1 280 pixels
Height                                   : 544 pixels
Display aspect ratio                     : 2.40:1
Original display aspect ratio            : 2.40:1
Frame rate mode                          : Variable
Frame rate                               : 23.976 fps
Color space                              : YUV
Chroma subsampling                       : 4:2:0
Bit depth                                : 8 bits
Scan type                                : Progressive
Bits/(Pixel*Frame)                       : 0.120
Stream size                              : 1.78 GiB (67%)
Title                                    : MIRCrew
Writing library                          : x264 core 130 r2273
Encoding settings                        : cabac=1 / ref=2 / deblock=1:0:0 / analyse=0x1:0x131 / me=hex / subme=7 / psy=1 / psy_rd=1.00:0.00 / mixed_ref=0 / me_range=16 / chroma_me=1 / trellis=1 / 8x8dct=0 / cqm=0 / deadzone=21,11 / fast_pskip=1 / chroma_qp_offset=-2 / threads=9 / lookahead_threads=1 / sliced_threads=0 / nr=0 / decimate=1 / interlaced=0 / bluray_compat=0 / constrained_intra=0 / bframes=3 / b_pyramid=0 / b_adapt=1 / b_bias=0 / direct=3 / weightb=1 / open_gop=0 / weightp=2 / keyint=230 / keyint_min=23 / scenecut=40 / intra_refresh=0 / rc_lookahead=40 / rc=abr / mbtree=1 / bitrate=2000 / ratetol=1.0 / qcomp=0.60 / qpmin=10 / qpmax=69 / qpstep=4 / vbv_maxrate=24000 / vbv_bufsize=24000 / nal_hrd=none / ip_ratio=1.40 / aq=1:1.00
Language                                 : Italian
Default                                  : Yes
Forced                                   : No
DURATION                                 : 02:11:43.104000000
NUMBER_OF_FRAMES                         : 189485
NUMBER_OF_BYTES                          : 8753238913
_STATISTICS_WRITING_APP                  : mkvmerge v22.0.0 ('At The End Of The World&#39 64-bit
_STATISTICS_WRITING_DATE_UTC             : 2019-06-26 12:27:37
_STATISTICS_TAGS                         : BPS DURATION NUMBER_OF_FRAMES NUMBER_OF_BYTES

Audio #1
ID                                       : 2
Format                                   : AC-3
Format/Info                              : Audio Coding 3
Mode extension                           : CM (complete main)
Codec ID                                 : A_AC3
Duration                                 : 2h 11mn
Bit rate mode                            : Constant
Bit rate                                 : 448 Kbps
Channel(s)                               : 6 channels
Channel positions                        : Front: L C R, Side: L R, LFE
Sampling rate                            : 48.0 KHz
Bit depth                                : 16 bits
Compression mode                         : Lossy
Delay relative to video                  : -42ms
Stream size                              : 422 MiB (16%)
Title                                    : Ita Ac3 5.1
Language                                 : English
Default                                  : Yes
Forced                                   : No
DURATION                                 : 02:11:43.136000000
NUMBER_OF_FRAMES                         : 246973
NUMBER_OF_BYTES                          : 632250880
_STATISTICS_WRITING_APP                  : mkvmerge v22.0.0 ('At The End Of The World&#39 64-bit
_STATISTICS_WRITING_DATE_UTC             : 2019-06-26 12:27:37
_STATISTICS_TAGS                         : BPS DURATION NUMBER_OF_FRAMES NUMBER_OF_BYTES

Audio #2
ID                                       : 3
Format                                   : AC-3
Format/Info                              : Audio Coding 3
Mode extension                           : CM (complete main)
Codec ID                                 : A_AC3
Duration                                 : 2h 11mn
Bit rate mode                            : Constant
Bit rate                                 : 448 Kbps
Channel(s)                               : 6 channels
Channel positions                        : Front: L C R, Side: L R, LFE
Sampling rate                            : 48.0 KHz
Bit depth                                : 16 bits
Compression mode                         : Lossy
Delay relative to video                  : -5ms
Stream size                              : 422 MiB (16%)
Title                                    : Eng Ac3 5.1
Language                                 : efi
Default                                  : No
Forced                                   : No




Info: Per scaricare devi usare un client come uTorrent o Transmission
AnnounceURL
udp://tracker.coppersurfer.tk:6969/announce
Hash 3bfd8dc105eed27e615f7e02f366ec9508ddc906
Peers seeds: 53 , leech: 8
Size 2.67 GB
Completato 4042x
Aggiunto 08.07.19 - 19:07:52
Uploader   robbyrs
Votazione (Voti: 1)


Condividi questo bittorrent:


html/blog:


bbcode/forum:




Aggiungi Commento