Loading...
 * Dettagli Torrent   globale  | Commenti (0) 


- Beats (2019).720p.H264.ita.eng.Ac3-5.1-MIRCrew -


Download via torrent:
Categoria bittorrent BDRip
Descrizione
visitate mircrew-releases

Beats 2019.720p.H264.ita.eng.Ac3-5.1-MIRCrew


NO FOUND ONLY ORIGINAL RELEASE

My release is always in double track audio italian and Original audio
for select it use VLC or dvd player home
not use wmp

Beats (2019)

Quality MIRCrew on HD 720p da  2,1 gb










Titolo originale: La nuit a dévoré le monde
Dati: Anno: 2018
Genere: horror
Regia: Dominique Rocher
Note: Aka "The night eats the world"



Khalil Everage, Anthony Anderson, Uzo AdubaEmayatzy, Corinealdi Paul, Walter Hauser, Dave East Seandrea, SledgeAshley, JacksonMegan Sousa



Nel South Side di Chicago, il genio dell'hip hop August Monroe si barcamena tra ansia divorante e nuove frontiere creative con l'aiuto di un mentore improbabile.



A young talented guy who suffered from the loss of his sister meets a disoriented manager who is trying to get back on track in his musical career.  

 





General
Unique ID                                : 249877956885630764151858836741746944935 (0xBBFCBE74379B18519BAC43E4BF5D6BA7)
Complete name                            : Beats (2019).720p.ita.eng-MIRCrewBeats (2019).720p.ita.eng-MIRCrew.mkv
Format                                   : Matroska
Format version                           : Version 2
File size                                : 2.14 GiB
Duration                                 : 1h 50mn
Overall bit rate                         : 2 781 Kbps
Movie name                               : MIRCrew
Encoded date                             : UTC 2019-06-23 08:47:30
Writing application                      : mkvmerge v5.8.0 ('No Sleep / Pillow&#39 built on Sep  2 2012 15:37:04
Writing library                          : Lavf54.63.100
COMMENT                                  : mircrew-releases

Video
ID                                       : 1
Format                                   : AVC
Format/Info                              : Advanced Video Codec
Format profile                           : [email protected]
Format settings, CABAC                   : Yes
Format settings, ReFrames                : 2 frames
Codec ID                                 : V_MPEG4/ISO/AVC
Duration                                 : 1h 50mn
Bit rate                                 : 1 900 Kbps
Width                                    : 1 280 pixels
Height                                   : 720 pixels
Display aspect ratio                     : 16:9
Frame rate mode                          : Variable
Frame rate                               : 23.976 fps
Color space                              : YUV
Chroma subsampling                       : 4:2:0
Bit depth                                : 8 bits
Scan type                                : Progressive
Bits/(Pixel*Frame)                       : 0.086
Stream size                              : 1.41 GiB (66%)
Title                                    : MIRCrew
Writing library                          : x264 core 130 r2273
Encoding settings                        : cabac=1 / ref=2 / deblock=1:0:0 / analyse=0x1:0x131 / me=hex / subme=7 / psy=1 / psy_rd=1.00:0.00 / mixed_ref=0 / me_range=16 / chroma_me=1 / trellis=1 / 8x8dct=0 / cqm=0 / deadzone=21,11 / fast_pskip=1 / chroma_qp_offset=-2 / threads=9 / lookahead_threads=1 / sliced_threads=0 / nr=0 / decimate=1 / interlaced=0 / bluray_compat=0 / constrained_intra=0 / bframes=3 / b_pyramid=0 / b_adapt=1 / b_bias=0 / direct=3 / weightb=1 / open_gop=0 / weightp=2 / keyint=230 / keyint_min=23 / scenecut=40 / intra_refresh=0 / rc_lookahead=40 / rc=abr / mbtree=1 / bitrate=1900 / ratetol=1.0 / qcomp=0.60 / qpmin=10 / qpmax=69 / qpstep=4 / vbv_maxrate=24000 / vbv_bufsize=24000 / nal_hrd=none / ip_ratio=1.40 / aq=1:1.00
Language                                 : Italian
Default                                  : Yes
Forced                                   : No
DURATION                                 : 01:50:02.138000000
NUMBER_OF_FRAMES                         : 158293
NUMBER_OF_BYTES                          : 2146489312
_STATISTICS_WRITING_APP                  : mkvmerge v35.0.0 ('All The Love In The World&#39 64-bit
_STATISTICS_WRITING_DATE_UTC             : 2019-06-23 08:47:30
_STATISTICS_TAGS                         : BPS DURATION NUMBER_OF_FRAMES NUMBER_OF_BYTES

Audio #1
ID                                       : 2
Format                                   : AC-3
Format/Info                              : Audio Coding 3
Mode extension                           : CM (complete main)
Codec ID                                 : A_AC3
Duration                                 : 1h 50mn
Bit rate mode                            : Constant
Bit rate                                 : 448 Kbps
Channel(s)                               : 6 channels
Channel positions                        : Front: L C R, Side: L R, LFE
Sampling rate                            : 48.0 KHz
Bit depth                                : 16 bits
Compression mode                         : Lossy
Delay relative to video                  : -5ms
Stream size                              : 353 MiB (16%)
Title                                    : Ita Ac3 5.1
Language                                 : Italian
Default                                  : Yes
Forced                                   : No
DURATION                                 : 01:50:02.112000000
NUMBER_OF_FRAMES                         : 206316
NUMBER_OF_BYTES                          : 528168960
_STATISTICS_WRITING_APP                  : mkvmerge v35.0.0 ('All The Love In The World&#39 64-bit
_STATISTICS_WRITING_DATE_UTC             : 2019-06-23 08:47:30
_STATISTICS_TAGS                         : BPS DURATION NUMBER_OF_FRAMES NUMBER_OF_BYTES

Audio #2
ID                                       : 3
Format                                   : AC-3
Format/Info                              : Audio Coding 3
Mode extension                           : CM (complete main)
Codec ID                                 : A_AC3
Duration                                 : 1h 50mn
Bit rate mode                            : Constant
Bit rate                                 : 448 Kbps
Channel(s)                               : 6 channels
Channel positions                        : Front: L C R, Side: L R, LFE
Sampling rate                            : 48.0 KHz
Bit depth                                : 16 bits
Compression mode                         : Lossy
Delay relative to video                  : -5ms
Stream size                              : 353 MiB (16%)
Title                                    : Eng Ac3 5.1
Language                                 : English
Default                                  : No
Forced                                   : No
DURATION                                 : 01:50:02.112000000
NUMBER_OF_FRAMES                         : 206316
NUMBER_OF_BYTES                          : 528168960
_STATISTICS_WRITING_APP                  : mkvmerge v35.0.0 ('All The Love In The World&#39 64-bit
_STATISTICS_WRITING_DATE_UTC             : 2019-06-23 08:47:30
_STATISTICS_TAGS                         : BPS DURATION NUMBER_OF_FRAMES NUMBER_OF_BYTES



Info: Per scaricare devi usare un client come uTorrent o Transmission
AnnounceURL
udp://tracker.coppersurfer.tk:6969/announce
Hash 1668d0cc6007b27b4ecf950283bc5d2dcb1253f8
Peers seeds: 41 , leech: 4
Size 2.14 GB
Completato 1077x
Aggiunto 08.07.19 - 19:07:19
Uploader   robbyrs
Votazione (Voti: 0)


Condividi questo bittorrent:


html/blog:


bbcode/forum:




Aggiungi Commento