Loading...
 * Dettagli Torrent   globale  | Commenti (1) 


- Dumbo (2019).720p.H264.ita.eng.Ac3-5.1.multisub-MIRCrew -


Download via torrent:
Categoria bittorrent BDRip
Descrizione
visitate mircrew-releases


Dumbo (2019).720p.H264.ita.eng.Ac3-5.1.multisub-MIRCrew


NO FOUND ONLY ORIGINAL RELEASE

My release is always in double track audio italian and Original audio
for select it use VLC or dvd player home
not use wmp

Dumbo (2019)

Quality MIRCrew on 720p da  2,4 gb










Lingua originale inglese
Paese di produzione Stati Uniti d'America
Anno 2019
Durata 112 min
Rapporto 1,85 : 1
Genere fantastico
Regia Tim Burton
Soggetto storia di Helen Aberson
Sceneggiatura Ehren Kruger



   Colin Farrell: Holt Farrier
   Michael Keaton: V. A. Vandevere
   Danny DeVito: Max Medici
   Eva Green: Colette Marchant
   Alan Arkin: J. Griffin Remington
   Nico Parker: Milly Farrier
   Finley Hobbins: Joe Farrier
   Joseph Gatt: Neils Skellig
   Douglas Reith: Sotheby
   Phil Zimmerman: Rufus Sorghum
   Sharon Rooney: Miss Atlantis
   Michael Buffer: baritono Bates



Stati Uniti d'America, 1919. Holt Farrier, ex star del circo Medici, ritorna dalla prima guerra mondiale per poter iniziare una nuova vita con i suoi figli Milly e Joe. Purtroppo, quando Holt ritorna a casa, ritrova la sua vita messa a soqquadro, in quanto, avendo perso un braccio nella guerra, non potrà più fare le sue acrobazie da circo con i suoi cavalli.



A young elephant, whose oversized ears enable him to fly, helps save a struggling circus, but when the circus plans a new venture, Dumbo and his friends discover dark secrets beneath its shiny veneer.

 





General
Unique ID                                : 225708673110266261339955984313073487637 (0xA9CDE8C2F9D921D99A8883ECCC234F15)
Complete name                            : Dumbo (2019).720p.ita.eng.multisub-MIRCrewDumbo (2019)720p.ita.eng.multisub-MIRCrew.mkv
Format                                   : Matroska
Format version                           : Version 2
File size                                : 2.31 GiB
Duration                                 : 1h 51mn
Overall bit rate                         : 2 950 Kbps
Movie name                               : MIRCrew
Encoded date                             : UTC 2019-06-17 20:33:58
Writing application                      : mkvmerge v5.8.0 ('No Sleep / Pillow&#39 built on Sep  2 2012 15:37:04
Writing library                          : Lavf54.63.100
COMMENT                                  : mircrew-releases

Video
ID                                       : 1
Format                                   : AVC
Format/Info                              : Advanced Video Codec
Format profile                           : [email protected]
Format settings, CABAC                   : Yes
Format settings, ReFrames                : 2 frames
Codec ID                                 : V_MPEG4/ISO/AVC
Duration                                 : 1h 51mn
Bit rate                                 : 2 050 Kbps
Width                                    : 1 920 pixels
Height                                   : 1 040 pixels
Display aspect ratio                     : 16:9
Frame rate mode                          : Variable
Frame rate                               : 23.976 fps
Color space                              : YUV
Chroma subsampling                       : 4:2:0
Bit depth                                : 8 bits
Scan type                                : Progressive
Bits/(Pixel*Frame)                       : 0.043
Stream size                              : 1.56 GiB (68%)
Title                                    : MIRCrew
Writing library                          : x264 core 130 r2273
Encoding settings                        : cabac=1 / ref=2 / deblock=1:0:0 / analyse=0x1:0x131 / me=hex / subme=7 / psy=1 / psy_rd=1.00:0.00 / mixed_ref=0 / me_range=16 / chroma_me=1 / trellis=1 / 8x8dct=0 / cqm=0 / deadzone=21,11 / fast_pskip=1 / chroma_qp_offset=-2 / threads=9 / lookahead_threads=1 / sliced_threads=0 / nr=0 / decimate=1 / interlaced=0 / bluray_compat=0 / constrained_intra=0 / bframes=3 / b_pyramid=0 / b_adapt=1 / b_bias=0 / direct=3 / weightb=1 / open_gop=0 / weightp=2 / keyint=230 / keyint_min=23 / scenecut=40 / intra_refresh=0 / rc_lookahead=40 / rc=abr / mbtree=1 / bitrate=2050 / ratetol=1.0 / qcomp=0.60 / qpmin=10 / qpmax=69 / qpstep=4 / vbv_maxrate=24000 / vbv_bufsize=24000 / nal_hrd=none / ip_ratio=1.40 / aq=1:1.00
Default                                  : Yes
Forced                                   : No
DURATION                                 : 01:51:56.502000000
NUMBER_OF_FRAMES                         : 161035
NUMBER_OF_BYTES                          : 7261868996
_STATISTICS_WRITING_APP                  : mkvmerge v34.0.0 ('Sight and Seen&#39 64-bit
_STATISTICS_WRITING_DATE_UTC             : 2019-06-17 20:33:58
_STATISTICS_TAGS                         : BPS DURATION NUMBER_OF_FRAMES NUMBER_OF_BYTES

Audio #1
ID                                       : 2
Format                                   : AC-3
Format/Info                              : Audio Coding 3
Mode extension                           : CM (complete main)
Codec ID                                 : A_AC3
Duration                                 : 1h 51mn
Bit rate mode                            : Constant
Bit rate                                 : 448 Kbps
Channel(s)                               : 6 channels
Channel positions                        : Front: L C R, Side: L R, LFE
Sampling rate                            : 48.0 KHz
Bit depth                                : 16 bits
Compression mode                         : Lossy
Delay relative to video                  : -42ms
Stream size                              : 359 MiB (15%)
Title                                    : Ita Ac3 5.1
Language                                 : English
Default                                  : Yes
Forced                                   : No
DURATION                                 : 01:51:56.512000000
NUMBER_OF_FRAMES                         : 209891
NUMBER_OF_BYTES                          : 537320960
_STATISTICS_WRITING_APP                  : mkvmerge v34.0.0 ('Sight and Seen&#39 64-bit
_STATISTICS_WRITING_DATE_UTC             : 2019-06-17 20:33:58
_STATISTICS_TAGS                         : BPS DURATION NUMBER_OF_FRAMES NUMBER_OF_BYTES

Audio #2
ID                                       : 3
Format                                   : AC-3
Format/Info                              : Audio Coding 3
Mode extension                           : CM (complete main)
Codec ID                                 : A_AC3
Duration                                 : 1h 51mn
Bit rate mode                            : Constant
Bit rate                                 : 448 Kbps
Channel(s)                               : 2 channels
Channel positions                        : Front: L R
Sampling rate                            : 48.0 KHz
Bit depth                                : 16 bits
Compression mode                         : Lossy
Delay relative to video                  : -5ms
Stream size                              : 359 MiB (15%)
Title                                    : Eng Ac3 5.1
Language                                 : English
Default                                  : No
Forced                                   : No

Menu
00:00:00.000                             : :00:00:00.000
00:02:49.461                             : :00:02:49.461
00:06:46.072                             : :00:06:46.072
00:11:23.766                             : :00:11:23.766
00:16:33.993                             : :00:16:33.993
00:19:20.493                             : :00:19:20.493
00:26:08.233                             : :00:26:08.233
00:27:46.331                             : :00:27:46.331
00:31:07.783                             : :00:31:07.783
00:35:09.024                             : :00:35:09.024
00:40:44.984                             : :00:40:44.984
00:46:44.927                             : :00:46:44.927
00:50:23.938                             : :00:50:23.938
00:57:15.265                             : :00:57:15.265
01:01:53.126                             : :01:01:53.126
01:07:18.785                             : :01:07:18.785
01:10:11.666                             : :01:10:11.666
01:14:47.858                             : :01:14:47.858
01:18:05.055                             : :01:18:05.055
01:27:55.896                             : :01:27:55.896
01:37:09.532                             : :01:37:09.532
01:39:41.100                             : :01:39:41.100
01:44:02.611                             : :01:44:02.611




Info: Per scaricare devi usare un client come uTorrent o Transmission
AnnounceURL
udp://tracker.torrent.eu.org:451/announce
Hash 9fbc1cdd11aebc94f6efedf4737d708a82c49aa7
Peers seeds: 81 , leech: 9
Size 2.31 GB
Completato 1407x
Aggiunto 28.06.19 - 19:06:06
Uploader   robbyrs
Votazione (Voti: 2)


Condividi questo bittorrent:


html/blog:


bbcode/forum:




Aggiungi Commento
Ultimi commenti
  
Perfetto come sempre grazie!
08/07 21.39
Tutti commenti (1)