Loading...
 * Dettagli Torrent   globale  | Commenti (0) 


- Il magico mondo di Walt Disney (2014).720p.H264.ita.eng.Ac3-5.1.sub.spa.prt-MIRCrew -


Download via torrent:
Categoria bittorrent BDRip
Descrizione
visitate mircrew-releases

As Dreamers Do - Il magico mondo di Walt Disney (2014).720p.H264.ita.eng.Ac3-5.1.sub.spa.prt-MIRCrew


NO FOUND ONLY ORIGINAL RELEASE



My release is always in double track audio italian and Original audio
for select it use VLC or dvd player home
not use wmp

Il magico mondo di Walt Disney - As Dreamers Do (2014)

Quality MIRCrew on HD 720p da  1,7 gb










Regia: Logan Sekulow
Sceneggiatura/Autore: Wendy Ott
Produzione: Usa
Genere: Drammatico, Famiglia, Biografico
Durata: 90 minuti



Travis Tritt  The Narrator
Olan Rogers  Walt Disney
Ryan Dunlap  Roy Disney
Mark Stuart  Elias Disney



Il giovane Walt Elias Disney si impegna per migliorare le sue abilità come disegnatore: la sua intraprendenza e la sua spregiudicatezza lo premieranno, consentendogli di diventare il patriarca di una delle più importanti case di produzione cinematografica del mondo.



Behind every great mouse there is a man - Armed with an ever growing imagination and eternal optimism, Walt begins to develop skills as an animator early in life. He overcomes a variety of hardships to become one of the biggest icons in the world: Walt Disney

 





General

Complete name                            : Il magico mondo di Walt Disney - As Dreamers Do (2014).720p.ita.eng.sub.spa.prt-MIRCrewIl magico mondo di Walt Disney - As Dreamers Do (2014).720p.ita.eng.sub.spa.prt-MIRCrew.mkv
Format                                   : Matroska
Format version                           : Version 2
File size                                : 1.67 GiB
Duration                                 : 1h 30mn
Overall bit rate                         : 2 628 Kbps
Movie name                               : MIRCrew
Encoded date                             : UTC 2019-06-08 18:09:49
Writing application                      : mkvmerge v5.8.0 ('No Sleep / Pillow&#39 built on Sep  2 2012 15:37:04
Writing library                          : Lavf54.63.100
COMMENT                                  : mircrew-releases

Video
ID                                       : 1
Format                                   : AVC
Format/Info                              : Advanced Video Codec
Format profile                           : [email protected]
Format settings, CABAC                   : Yes
Format settings, ReFrames                : 2 frames
Codec ID                                 : V_MPEG4/ISO/AVC
Duration                                 : 1h 30mn
Bit rate                                 : 2 000 Kbps
Width                                    : 1 280 pixels
Height                                   : 720 pixels
Display aspect ratio                     : 16:9
Frame rate mode                          : Variable
Frame rate                               : 23.976 fps
Color space                              : YUV
Chroma subsampling                       : 4:2:0
Bit depth                                : 8 bits
Scan type                                : Progressive
Bits/(Pixel*Frame)                       : 0.091
Stream size                              : 1.23 GiB (74%)
Title                                    : MIRCrew
Writing library                          : x264 core 130 r2273
Encoding settings                        : cabac=1 / ref=2 / deblock=1:0:0 / analyse=0x1:0x131 / me=hex / subme=7 / psy=1 / psy_rd=1.00:0.00 / mixed_ref=0 / me_range=16 / chroma_me=1 / trellis=1 / 8x8dct=0 / cqm=0 / deadzone=21,11 / fast_pskip=1 / chroma_qp_offset=-2 / threads=9 / lookahead_threads=1 / sliced_threads=0 / nr=0 / decimate=1 / interlaced=0 / bluray_compat=0 / constrained_intra=0 / bframes=3 / b_pyramid=0 / b_adapt=1 / b_bias=0 / direct=3 / weightb=1 / open_gop=0 / weightp=2 / keyint=230 / keyint_min=23 / scenecut=40 / intra_refresh=0 / rc_lookahead=40 / rc=abr / mbtree=1 / bitrate=2000 / ratetol=1.0 / qcomp=0.60 / qpmin=10 / qpmax=69 / qpstep=4 / vbv_maxrate=24000 / vbv_bufsize=24000 / nal_hrd=none / ip_ratio=1.40 / aq=1:1.00
Language                                 : Italian
Default                                  : Yes
Forced                                   : No
DURATION                                 : 01:30:43.105000000
NUMBER_OF_FRAMES                         : 130504
NUMBER_OF_BYTES                          : 7126996564
_STATISTICS_WRITING_APP                  : mkvmerge v7.4.0 ('Circles&#39 32bit built on Dec 12 2014 12:10:09
_STATISTICS_WRITING_DATE_UTC             : 2019-06-08 18:09:49
_STATISTICS_TAGS                         : BPS DURATION NUMBER_OF_FRAMES NUMBER_OF_BYTES

Audio #1
ID                                       : 2
Format                                   : AC-3
Format/Info                              : Audio Coding 3
Mode extension                           : CM (complete main)
Codec ID                                 : A_AC3
Duration                                 : 1h 30mn
Bit rate mode                            : Constant
Bit rate                                 : 448 Kbps
Channel(s)                               : 6 channels
Channel positions                        : Front: L C R, Side: L R, LFE
Sampling rate                            : 48.0 KHz
Bit depth                                : 16 bits
Compression mode                         : Lossy
Delay relative to video                  : -5ms
Stream size                              : 291 MiB (17%)
Title                                    : Ita Ac3 5.1
Language                                 : Italian
Default                                  : Yes
Forced                                   : No
DURATION                                 : 01:30:43.104000000
NUMBER_OF_FRAMES                         : 170097
NUMBER_OF_BYTES                          : 304813824
_STATISTICS_WRITING_APP                  : mkvmerge v7.4.0 ('Circles&#39 32bit built on Dec 12 2014 12:10:09
_STATISTICS_WRITING_DATE_UTC             : 2019-06-08 18:09:49
_STATISTICS_TAGS                         : BPS DURATION NUMBER_OF_FRAMES NUMBER_OF_BYTES

Audio #2
ID                                       : 3
Format                                   : AC-3
Format/Info                              : Audio Coding 3
Mode extension                           : CM (complete main)
Codec ID                                 : A_AC3
Duration                                 : 1h 30mn
Bit rate mode                            : Constant
Bit rate                                 : 192 Kbps
Channel(s)                               : 2 channels
Channel positions                        : Front: L R
Sampling rate                            : 48.0 KHz
Bit depth                                : 16 bits
Compression mode                         : Lossy
Delay relative to video                  : -42ms
Stream size                              : 125 MiB (7%)
Title                                    : Eng Ac3 5.1
Language                                 : English
Default                                  : No
Forced                                   : No




Info: Per scaricare devi usare un client come uTorrent o Transmission
AnnounceURL
udp://tracker.coppersurfer.tk:6969/announce
Hash 40f1ebe163fd36d10b41d4e839f842abac0164ec
Peers seeds: 61 , leech: 13
Size 1.67 GB
Completato 940x
Aggiunto 11.06.19 - 18:06:42
Uploader   robbyrs
Votazione (Voti: 0)


Condividi questo bittorrent:


html/blog:


bbcode/forum:




Aggiungi Commento