Loading...
 * Dettagli Torrent   globale  | Commenti (0) 


- Porcile - Pigsty (1969) Pasolini.720p.H264.ita.Ac3-sub.eng-MIRCrew -


Download via torrent:
Categoria bittorrent BDRip
Descrizione
visitate mircrew-releases

Porcile - Pigsty (1969) Pasolini.720p.H264.ita.Ac3-.sub.eng-MIRCrew



NO FOUND ONLY ORIGINAL RELEASE

ENGLISH SUBTITLE INSIDE

My release is always in double track audio italian and Original audio
for select it use VLC or dvd player home
not use wmp

Porcile - Pigsty (1969)

Quality MIRCrew on HD 720p da  1,5 gb










Paese di produzione Italia
Anno 1969
Durata 98 min
Genere drammatico
Regia Pier Paolo Pasolini con la collaborazione di Sergio Citti e Fabio Garriba
Soggetto Pier Paolo Pasolini
Sceneggiatura Pier Paolo Pasolini con la collaborazione di Sergio Citti



   Pierre Clémenti: Il primo cannibale
   Franco Citti: Il secondo cannibale
   Luigi Barbini: soldato
   Ninetto Davoli: Maracchione
   Sergio Elia: domestico
   Jean-Pierre Léaud: Julian
   Alberto Lionello: Klotz
   Margarita Lozano: Madame Klotz
   Anne Wiazemsky: Ida
   Ugo Tognazzi: Herdhitze
   Antonino Faà di Bruno: l'uomo anziano
   Marco Ferreri: Hans Guenther



Due episodi paralleli: nel primo la storia di una famiglia borghese tedesca capeggiata da un padre fascista il cui figlio viene divorato dai maiali con cui è solito accoppiarsi, nel secondo la storia di un giovane affamato che vaga in una desolata landa vulcanica (girato sull'Etna) ove diverrà cannibale e al quale si aggiungeranno altri individui, verranno in seguito tutti condannati ad...............



Two dramatic stories. In an undetermined past, a young cannibal (who killed his own father) is condemned to be torn to pieces by some wild beasts. In the second story, Julian, the young son.

 





General
Unique ID                                : 192509666035413141379588876368101973165 (0x90D40356998FD436876DB3E135831CAD)
Complete name                            : Porcile - Pigsty (1969).720p.h264.ita.sub.eng-MIRCrewPorcile - Pigsty (1969).720p.h264.ita.sub.eng-MIRCrew.mkv
Format                                   : Matroska
Format version                           : Version 2
File size                                : 1.43 GiB
Duration                                 : 1h 37mn
Overall bit rate                         : 2 093 Kbps
Movie name                               : MIRCrew
Encoded date                             : UTC 2019-06-08T20:48:46Z
Writing application                      : mkvmerge v5.8.0 ('No Sleep / Pillow&#39 built on Sep  2 2012 15:37:04
Writing library                          : Lavf55.12.0

Video
ID                                       : 1
Format                                   : AVC
Format/Info                              : Advanced Video Codec
Format profile                           : [email protected]
Format settings, CABAC                   : Yes
Format settings, ReFrames                : 4 frames
Codec ID                                 : V_MPEG4/ISO/AVC
Duration                                 : 1h 37mn
Bit rate                                 : 1 900 Kbps
Width                                    : 1 280 pixels
Height                                   : 704 pixels
Display aspect ratio                     : 16:9
Frame rate                               : 24.000 fps
Color space                              : YUV
Chroma subsampling                       : 4:2:0
Bit depth                                : 8 bits
Scan type                                : Progressive
Bits/(Pixel*Frame)                       : 0.088
Stream size                              : 1.27 GiB (89%)
Title                                    : MIRCrew
Writing library                          : x264 core 142 r2479 dd79a61
Encoding settings                        : cabac=1 / ref=1 / deblock=1:0:0 / analyse=0x1:0x111 / me=hex / subme=2 / psy=1 / psy_rd=1.00:0.00 / mixed_ref=0 / me_range=16 / chroma_me=1 / trellis=0 / 8x8dct=0 / cqm=0 / deadzone=21,11 / fast_pskip=1 / chroma_qp_offset=0 / threads=9 / lookahead_threads=3 / sliced_threads=0 / nr=0 / decimate=1 / interlaced=0 / bluray_compat=0 / constrained_intra=0 / bframes=3 / b_pyramid=2 / b_adapt=1 / b_bias=0 / direct=1 / weightb=1 / open_gop=0 / weightp=1 / keyint=240 / keyint_min=24 / scenecut=40 / intra_refresh=0 / rc_lookahead=10 / rc=abr / mbtree=1 / bitrate=1900 / ratetol=1.0 / qcomp=0.60 / qpmin=0 / qpmax=69 / qpstep=4 / vbv_maxrate=50000 / vbv_bufsize=62500 / nal_hrd=none / filler=0 / ip_ratio=1.40 / aq=1:1.00
Language                                 : Italian
Default                                  : Yes
Forced                                   : No
Color primaries                          : BT.709-5, BT.1361, IEC 61966-2-4, SMPTE RP177
Transfer characteristics                 : BT.709-5, BT.1361
Matrix coefficients                      : BT.709-5, BT.1361, IEC 61966-2-4 709, SMPTE RP177

Audio
ID                                       : 2
Format                                   : AC-3
Format/Info                              : Audio Coding 3
Mode extension                           : CM (complete main)
Codec ID                                 : A_AC3
Duration                                 : 1h 37mn
Bit rate mode                            : Constant
Bit rate                                 : 192 Kbps
Channel(s)                               : 1 channel
Channel positions                        : Front: C
Sampling rate                            : 48.0 KHz
Bit depth                                : 16 bits
Compression mode                         : Lossy
Delay relative to video                  : -5ms
Stream size                              : 134 MiB (9%)
Title                                    : Ita Ac3
Language                                 : Italian
Default                                  : Yes
Forced                                   : No



Info: Per scaricare devi usare un client come uTorrent o Transmission
AnnounceURL
udp://tracker.coppersurfer.tk:6969/announce
Hash 86e8c0fcb3b1de41a9b5db5eb6501f1da40077b7
Peers seeds: 36 , leech: 4
Size 1.43 GB
Completato 571x
Aggiunto 09.06.19 - 17:06:50
Uploader   robbyrs
Votazione (Voti: 0)


Condividi questo bittorrent:


html/blog:


bbcode/forum:




Aggiungi Commento