Loading...
 * Dettagli Torrent   globale  | Commenti (1) 


- I Am Mother (2019).720p.H264.ita.eng.Ac3-5.1.multisub-MIRCrew -


Download via torrent:
Categoria bittorrent BDRip
Descrizione
visitate mircrew-releases

I Am Mother (2019).720p.H264.ita.eng.Ac3-5.1.multisub-MIRCrew


NO FOUND ONLY ORIGINAL RELEASE

My release is always in double track audio italian and Original audio
for select it use VLC or dvd player home
not use wmp

I Am Mother (2019)

Quality MIRCrew on HD 720p da  2,3 gb










Paese di produzione Australia, Stati Uniti d'America
Anno 2019
Durata 115 min
Genere thriller, fantascienza
Regia Grant Sputore
Sceneggiatura Michael Lloyd Green
Distribuzione in italiano Netflix



   Hilary Swank
   Clara Rugaard
   Rose Byrne



Dopo l'estinzione di massa dell'umanità, il mondo di un'adolescente cresciuta da sola da un droide materno è sconvolto dall'incontro con un altro essere umano.



A teenage girl is raised underground by a kindly robot "Mother" -- designed to repopulate the earth following the extinction of humankind. But their unique bond is threatened when an inexplicable stranger arrives with alarming news.

 





General
Unique ID                                : 242300125950527955946302420284463423622 (0xB6494E8B147978BAA98FC61829B8A086)
Complete name                            : I Am Mother (2019).720p.ita.eng.multisub-MIRCrewI Am Mother (2019).720p.ita.eng.multisub-MIRCrew.mkv
Format                                   : Matroska
Format version                           : Version 2
File size                                : 2.26 GiB
Duration                                 : 1h 53mn
Overall bit rate                         : 2 853 Kbps
Movie name                               : MIRCrew
Encoded date                             : UTC 2019-06-08 15:30:40
Writing application                      : mkvmerge v5.8.0 ('No Sleep / Pillow&#39 built on Sep  2 2012 15:37:04
Writing library                          : Lavf54.63.100
COMMENT                                  : mircrew-releases

Video
ID                                       : 1
Format                                   : AVC
Format/Info                              : Advanced Video Codec
Format profile                           : [email protected]
Format settings, CABAC                   : Yes
Format settings, ReFrames                : 2 frames
Codec ID                                 : V_MPEG4/ISO/AVC
Duration                                 : 1h 53mn
Bit rate                                 : 1 901 Kbps
Nominal bit rate                         : 2 000 Kbps
Width                                    : 1 280 pixels
Height                                   : 720 pixels
Display aspect ratio                     : 16:9
Frame rate mode                          : Variable
Frame rate                               : 24.000 fps
Color space                              : YUV
Chroma subsampling                       : 4:2:0
Bit depth                                : 8 bits
Scan type                                : Progressive
Bits/(Pixel*Frame)                       : 0.086
Stream size                              : 1.51 GiB (67%)
Title                                    : MIRCrew
Writing library                          : x264 core 130 r2273
Encoding settings                        : cabac=1 / ref=2 / deblock=1:0:0 / analyse=0x1:0x131 / me=hex / subme=7 / psy=1 / psy_rd=1.00:0.00 / mixed_ref=0 / me_range=16 / chroma_me=1 / trellis=1 / 8x8dct=0 / cqm=0 / deadzone=21,11 / fast_pskip=1 / chroma_qp_offset=-2 / threads=9 / lookahead_threads=1 / sliced_threads=0 / nr=0 / decimate=1 / interlaced=0 / bluray_compat=0 / constrained_intra=0 / bframes=3 / b_pyramid=0 / b_adapt=1 / b_bias=0 / direct=3 / weightb=1 / open_gop=0 / weightp=2 / keyint=240 / keyint_min=24 / scenecut=40 / intra_refresh=0 / rc_lookahead=40 / rc=abr / mbtree=1 / bitrate=2000 / ratetol=1.0 / qcomp=0.60 / qpmin=10 / qpmax=69 / qpstep=4 / vbv_maxrate=24000 / vbv_bufsize=24000 / nal_hrd=none / ip_ratio=1.40 / aq=1:1.00
Language                                 : Italian
Default                                  : Yes
Forced                                   : No

Audio #1
ID                                       : 2
Format                                   : AC-3
Format/Info                              : Audio Coding 3
Mode extension                           : CM (complete main)
Codec ID                                 : A_AC3
Duration                                 : 1h 53mn
Bit rate mode                            : Constant
Bit rate                                 : 448 Kbps
Channel(s)                               : 6 channels
Channel positions                        : Front: L C R, Side: L R, LFE
Sampling rate                            : 48.0 KHz
Bit depth                                : 16 bits
Compression mode                         : Lossy
Delay relative to video                  : -42ms
Stream size                              : 364 MiB (16%)
Title                                    : Ita Ac3 5.1
Language                                 : English
Default                                  : No
Forced                                   : No

Audio #2
ID                                       : 3
Format                                   : AC-3
Format/Info                              : Audio Coding 3
Mode extension                           : CM (complete main)
Codec ID                                 : A_AC3
Duration                                 : 1h 53mn
Bit rate mode                            : Constant
Bit rate                                 : 448 Kbps
Channel(s)                               : 6 channels
Channel positions                        : Front: L C R, Side: L R, LFE
Sampling rate                            : 48.0 KHz
Bit depth                                : 16 bits
Compression mode                         : Lossy
Delay relative to video                  : -5ms
Stream size                              : 364 MiB (16%)
Title                                    : Eng Ac3 5.1
Language                                 : English
Default                                  : No
Forced                                   : No


Info: Per scaricare devi usare un client come uTorrent o Transmission
AnnounceURL
udp://tracker.coppersurfer.tk:6969/announce
Hash 730efcd3fa1045cd425929852a5c25d2cee34f8a
Peers seeds: 113 , leech: 30
Size 2.26 GB
Completato 2424x
Aggiunto 08.06.19 - 23:06:08
Uploader   robbyrs
Votazione (Voti: 1)


Condividi questo bittorrent:


html/blog:


bbcode/forum:




Aggiungi Commento
Ultimi commenti
  
Ottimo, grazie
09/06 13.08
Tutti commenti (1)