Loading...
 * Dettagli Torrent   globale  | Commenti (0) 


- Fury (2014).1080p.H264.italian.english.Ac3-5.1.sub.ita.eng-MIRCrew -


Download via torrent:
Categoria bittorrent BDRip
Descrizione
visitate mircrew-releases

Fury (2014).1080p.H264.italian.english.Ac3-5.1.sub.ita.eng-MIRCrew


NO FOUND ONLY ORIGINAL RELEASE

My release is always in double track audio italian and Original audio
for select it use VLC or dvd player home
not use wmp

Fury (2014)

Quality MIRCrew on HD 1080p da  3,2 gb










Titolo originale Fury
Lingua originale inglese
Paese di produzione Stati Uniti d'America
Anno 2014
Durata 134 min
Rapporto 2,35:1
Genere guerra, drammatico
Regia David Ayer
Soggetto David Ayer
Sceneggiatura David Ayer
Produttore David Ayer, Bill Block, John Lesher, Ethan Smith
Produttore esecutivo Brad Pitt, Anton Lessine, Sasha Shapiro, Ben Waisbren
Casa di produzione Le Grisbi Productions, Huayi Brothers Media, QED International
Distribuzione (Italia) Lucky Red Distribuzione
Fotografia Roman Vasyanov
Montaggio Jay Cassidy, Dody Dorn
Effetti speciali Genevieve Bevan-John, Christopher Brennan, Gareth Jolly, Craig Leong, Dan MacIntyre, Ceri Nicholls, Neil Toddy Todd, George Waite
Musiche Steven Price
Scenografia Andrew Menzies



Brad Pitt: Don 'Wardaddy' Collier
Shia LaBeouf: Boyd 'Bibbia' Swan
Logan Lerman: Norman 'Macchina' Ellison
Michael Peña: Trini 'Gordo' Garcia
Jon Bernthal: Grady 'Coon-Ass' Travis
Jim Parrack: sergente Binkowski
Jason Isaacs: capitano 'Vecchio' Waggoner
Xavier Samuel: tenente Parker
Brad William Henke: sergente Davis
Kevin Vance: sergente Peterson
Scott Eastwood: sergente Miles
Alicia von Rittberg: Emma
Anamaria Marinca: Irma



Aprile 1945: gli Alleati stanno avanzando in profondità nella Germania nazista. Tra i numerosi veterani ci sono anche il sergente carrista Don "Wardaddy" Collier, della 2ª Divisione corazzata, e il suo equipaggio: il cannoniere Boyd, profondamente cristiano e soprannominato "Bibbia", il pilota messicano Trini "Gordo" Garcia e il rude caricatore Grady "Coon-Ass" Travis, con i quali ha condiviso oltre tre anni di servizio nell'esercito americano e duri combattimenti nel deserto africano e in Normandia. ..............



April, 1945. As the Allies make their final push in the European Theatre, a battle-hardened Army sergeant named Wardaddy commands a Sherman tank and his five-man crew on a deadly mission behind enemy lines. Outnumbered, out-gunned, and with a rookie soldier thrust into their platoon, Wardaddy and his men face overwhelming odds in their heroic attempts to strike at the heart of Nazi Germany....................

 





General
Unique ID                                : 214150260664635838391919682824827195590 (0xA11BD707B314053181302150945650C6)
Complete name                            : Fury (2014).1080p.ita.eng.Ac3-5.1.sub.ita.eng-MIRCrewFury (2014).1080p.ita.eng.Ac3-5.1.sub.ita.eng-MIRCrew.mkv
Format                                   : Matroska
Format version                           : Version 2
File size                                : 3.19 GiB
Duration                                 : 2h 14mn
Overall bit rate                         : 3 397 Kbps
Movie name                               : MIRCrew
Encoded date                             : UTC 2019-05-22 17:22:38
Writing application                      : mkvmerge v5.8.0 ('No Sleep / Pillow&#39 built on Sep  2 2012 15:37:04
Writing library                          : libebml v1.2.3 + libmatroska v1.3.0

Video
ID                                       : 1
Format                                   : AVC
Format/Info                              : Advanced Video Codec
Format profile                           : [email protected]
Format settings, CABAC                   : Yes
Format settings, ReFrames                : 4 frames
Codec ID                                 : V_MPEG4/ISO/AVC
Duration                                 : 2h 14mn
Bit rate                                 : 2 500 Kbps
Width                                    : 1 920 pixels
Height                                   : 808 pixels
Display aspect ratio                     : 2.40:1
Frame rate                               : 23.976 fps
Color space                              : YUV
Chroma subsampling                       : 4:2:0
Bit depth                                : 8 bits
Scan type                                : Progressive
Bits/(Pixel*Frame)                       : 0.067
Stream size                              : 2.29 GiB (72%)
Title                                    : MIRCrew
Writing library                          : x264 core 152 r2851M ba24899
Encoding settings                        : cabac=1 / ref=4 / deblock=1:-1:-1 / analyse=0x3:0x113 / me=umh / subme=9 / psy=1 / psy_rd=1.00:0.15 / mixed_ref=1 / me_range=24 / chroma_me=1 / trellis=2 / 8x8dct=1 / cqm=0 / deadzone=21,11 / fast_pskip=1 / chroma_qp_offset=-3 / threads=32 / lookahead_threads=4 / sliced_threads=0 / nr=0 / decimate=1 / interlaced=0 / bluray_compat=0 / constrained_intra=0 / bframes=3 / b_pyramid=2 / b_adapt=2 / b_bias=0 / direct=3 / weightb=1 / open_gop=0 / weightp=2 / keyint=250 / keyint_min=25 / scenecut=40 / intra_refresh=0 / rc_lookahead=50 / rc=2pass / mbtree=1 / bitrate=2500 / ratetol=1.0 / qcomp=0.60 / qpmin=0 / qpmax=69 / qpstep=4 / cplxblur=20.0 / qblur=0.5 / vbv_maxrate=31250 / vbv_bufsize=31250 / nal_hrd=none / filler=0 / ip_ratio=1.40 / aq=3:1.00
Language                                 : Italian
Default                                  : Yes
Forced                                   : No

Audio #1
ID                                       : 2
Format                                   : AC-3
Format/Info                              : Audio Coding 3
Mode extension                           : CM (complete main)
Codec ID                                 : A_AC3
Duration                                 : 2h 14mn
Bit rate mode                            : Constant
Bit rate                                 : 448 Kbps
Channel(s)                               : 6 channels
Channel positions                        : Front: L C R, Side: L R, LFE
Sampling rate                            : 48.0 KHz
Bit depth                                : 16 bits
Compression mode                         : Lossy
Stream size                              : 431 MiB (13%)
Title                                    : Ita Ac3 5.1
Language                                 : Italian
Default                                  : Yes
Forced                                   : No

Audio #2
ID                                       : 3
Format                                   : AC-3
Format/Info                              : Audio Coding 3
Mode extension                           : CM (complete main)
Codec ID                                 : A_AC3
Duration                                 : 2h 14mn
Bit rate mode                            : Constant
Bit rate                                 : 448 Kbps
Channel(s)                               : 6 channels
Channel positions                        : Front: L C R, Side: L R, LFE
Sampling rate                            : 48.0 KHz
Bit depth                                : 16 bits
Compression mode                         : Lossy
Stream size                              : 431 MiB (13%)
Title                                    : Eng Ac3 5.1
Language                                 : English
Default                                  : No
Forced                                   : No





Info: Per scaricare devi usare un client come uTorrent o Transmission
AnnounceURL
udp://tracker.coppersurfer.tk:6969/announce
Hash 3ae2affd6992af5e0459b349e34f8369351fb4ec
Peers seeds: 37 , leech: 6
Size 3.19 GB
Completato 607x
Aggiunto 22.05.19 - 23:05:20
Uploader   robbyrs
Votazione (Voti: 0)


Condividi questo bittorrent:


html/blog:


bbcode/forum:




Aggiungi Commento