Loading...
 * Dettagli Torrent   globale  | Commenti (0) 


- Il primo Re (2019).720p.H264.Latino.Ac3-5.1.sub.ita.NUita.eng-MIRCrew -


Download via torrent:
Categoria bittorrent BDRip
Descrizione
visitate mircrew-releases

Il primo Re (2019).720p.H264.Latino.Ac3-5.1.sub.ita.NUita.eng-MIRCrew


NO FOUND ONLY ORIGINAL RELEASE

My release is always in double track audio italian and Original audio
for select it use VLC or dvd player home
not use wmp

Il primo Re (2019)

ENGLISH SUBTITLE INSIDE

PRESENTI I SOTTOTITOLI ITALIANI PER NON UDENTI

Quality MIRCrew on HD 720p da  2,0 gb










Lingua originale protolatino
Paese di produzione Italia, Belgio
Anno 2019
Durata 127 min
Rapporto 2,35:1
Genere epico, storico, azione
Regia Matteo Rovere
Soggetto Filippo Gravino, Francesca Manieri, Matteo Rovere
Sceneggiatura Filippo Gravino, Francesca Manieri, Matteo Rovere



   Alessandro Borghi: Remo
   Alessio Lapice: Romolo
   Fabrizio Rongione: Lars
   Massimiliano Rossi: Tefarie
   Tania Garribba: Satnei
   Lorenzo Gleijeses: Purtnass
   Vincenzo Crea: Elaxantre
   Max Malatesta: Veltur
   Fiorenzo Mattu: Mamercus
   Gabriel Montesi: Adieis
   Antonio Orlando: Erennis
   Vincenzo Pirrotta: Cai
   Michael Schermi: Aranth
   Ludovico Succio: Marce
   Martinus Tocchi: Lubces
   Nina Fotaras: Ramtha
   Emilio De Marchi: Testa di Lupo
   Luca Elmi: Maccus



Latium vetus, 753 a.C.: i due fratelli pastori Romolo e Remo vengono travolti da un'improvvisa e violenta esondazione del fiume Tevere, perdendo così tutti i capi di bestiame e finendo spiaggiati nel territorio della potente città di Alba Longa. I due vengono catturati dagli albani come schiavi.



Romulus and Remus, two shepherds and loyal brothers, end up taking part to a journey that will lead one of them to be the founder of the greatest nation ever seen. However, the fate of the chosen one will pass from killing his own brother.





General
Unique ID                                : 252609926017994976087181939377394569008 (0xBE0AE6EE807C165DBDF9ECE9073E4F30)
Complete name                            : Il primo Re (2019).720p.H264.Lat.sub.ita.NUita.eng-MIRCrewIl primo Re (2019).720p.H264.Lat.sub.ita.NUita.eng-MIRCrew.mkv
Format                                   : Matroska
Format version                           : Version 2
File size                                : 2.05 GiB
Duration                                 : 2h 7mn
Overall bit rate                         : 2 300 Kbps
Movie name                               : MIRCrew
Encoded date                             : UTC 2019-05-14 12:46:55
Writing application                      : mkvmerge v5.8.0 ('No Sleep / Pillow&#39 built on Sep  2 2012 15:37:04
Writing library                          : Lavf54.63.100
COMMENT                                  : mircrew-releases

Video
ID                                       : 1
Format                                   : AVC
Format/Info                              : Advanced Video Codec
Format profile                           : [email protected]
Format settings, CABAC                   : Yes
Format settings, ReFrames                : 2 frames
Codec ID                                 : V_MPEG4/ISO/AVC
Duration                                 : 2h 7mn
Bit rate                                 : 1 807 Kbps
Nominal bit rate                         : 1 900 Kbps
Width                                    : 1 264 pixels
Height                                   : 528 pixels
Display aspect ratio                     : 2.40:1
Frame rate mode                          : Variable
Frame rate                               : 24.000 fps
Color space                              : YUV
Chroma subsampling                       : 4:2:0
Bit depth                                : 8 bits
Scan type                                : Progressive
Bits/(Pixel*Frame)                       : 0.113
Stream size                              : 1.61 GiB (79%)
Title                                    : MIRCrew
Writing library                          : x264 core 130 r2273
Encoding settings                        : cabac=1 / ref=2 / deblock=1:0:0 / analyse=0x1:0x131 / me=hex / subme=7 / psy=1 / psy_rd=1.00:0.00 / mixed_ref=0 / me_range=16 / chroma_me=1 / trellis=1 / 8x8dct=0 / cqm=0 / deadzone=21,11 / fast_pskip=1 / chroma_qp_offset=-2 / threads=9 / lookahead_threads=1 / sliced_threads=0 / nr=0 / decimate=1 / interlaced=0 / bluray_compat=0 / constrained_intra=0 / bframes=3 / b_pyramid=0 / b_adapt=1 / b_bias=0 / direct=3 / weightb=1 / open_gop=0 / weightp=2 / keyint=240 / keyint_min=24 / scenecut=40 / intra_refresh=0 / rc_lookahead=40 / rc=abr / mbtree=1 / bitrate=1900 / ratetol=1.0 / qcomp=0.60 / qpmin=10 / qpmax=69 / qpstep=4 / vbv_maxrate=24000 / vbv_bufsize=24000 / nal_hrd=none / ip_ratio=1.40 / aq=1:1.00
Language                                 : Latin
Default                                  : Yes
Forced                                   : No

Audio
ID                                       : 2
Format                                   : AC-3
Format/Info                              : Audio Coding 3
Mode extension                           : CM (complete main)
Codec ID                                 : A_AC3
Duration                                 : 2h 7mn
Bit rate mode                            : Constant
Bit rate                                 : 448 Kbps
Channel(s)                               : 6 channels
Channel positions                        : Front: L C R, Side: L R, LFE
Sampling rate                            : 48.0 KHz
Bit depth                                : 16 bits
Compression mode                         : Lossy
Delay relative to video                  : -5ms
Stream size                              : 408 MiB (19%)
Title                                    : Ita Ac3 5.1
Language                                 : Latin
Default                                  : Yes
Forced                                   : No





Info: Per scaricare devi usare un client come uTorrent o Transmission
AnnounceURL
udp://tracker.coppersurfer.tk:6969/announce
Hash dce9d89917e38a717855a8d7777976481beaf085
Peers seeds: 224 , leech: 64
Size 2.05 GB
Completato 2846x
Aggiunto 16.05.19 - 14:05:48
Uploader   robbyrs
Votazione (Voti: 1)


Condividi questo bittorrent:


html/blog:


bbcode/forum:




Aggiungi Commento