Loading...
 * Dettagli Torrent   globale  | Commenti (0) 


- In Dubious Battle - Il coraggio degli ultimi (2016).720p.H264.ita.eng.Ac3-5.1.sub.ita.eng-MIRCrew -


Download via torrent:
Categoria bittorrent BDRip
Descrizione
visitate mircrew-releases


In Dubious Battle - Il coraggio degli ultimi (2016).720p.H264.italian.english.Ac3-5.1.sub.ita.eng-MIRCrew


NO FOUND ONLY ORIGINAL RELEASE

My release is always in double track audio italian and Original audio
for select it use VLC or dvd player home
not use wmp

In Dubious Battle - Il coraggio degli ultimi (2016)

Quality MIRCrew on HD 720p da  2,2 gb









Titolo originale In Dubious Battle
Lingua originale inglese
Paese di produzione Stati Uniti d'America
Anno 2016
Durata 110 min
Genere drammatico
Regia James Franco
Soggetto John Steinbeck (romanzo)
Sceneggiatura Matt Rager



   James Franco: Mac McLeod
   Nat Wolff: Jim Nolan
   Selena Gomez: Lisa London
   Vincent D'Onofrio: London
   Robert Duvall: Chris Bolton
   Ed Harris: Joy
   Bryan Cranston: Sceriffo
   Sam Shepard: Mr. Anderson
   John Savage: Dan
   Scott Haze: Frank
   Jack Kehler: Dott. Burton
   Zach Braff: Connor
   Josh Hutcherson: Vinnie
   Ahna O'Reilly: Edith "Edie" Malone
   Analeigh Tipton: Vera
   Alex Morf: Burke
   Danny McBride: Tramp
   Jacob Loeb: Paul
   Julian De Niro: Billy
   Keegan Allen: Eddie
   Ashley Greene: Danni Stevens
   Joel Marsh Garland: Al Anderson



Il personaggio principale della storia, Jim Nolan, è un attivista del Partito che sta organizzando un importante sciopero dei lavoratori, cercando così di attirare proseliti per la sua causa.



In the California apple country, 900 migratory workers rise up "in dubious battle" against the landowners. The group takes on a life of its own - stronger than its individual members and more frightening.

 





General
Unique ID                                : 268274485196728955961490225577347903326 (0xC9D3C953D70269B824145FC04AE5EF5E)
Complete name                            : In Dubious Battle - Il coraggio degli ultimi (2016).720.h264.ita.eng.sub.ita.eng-MIRCrewIn Dubious Battle - Il coraggio degli ultimi (2016).720.h264.ita.eng.sub.ita.eng-MIRCrew.mkv
Format                                   : Matroska
Format version                           : Version 2
File size                                : 2.20 GiB
Duration                                 : 1h 53mn
Overall bit rate                         : 2 791 Kbps
Movie name                               : MIRCrew
Encoded date                             : UTC 2019-05-01 13:06:34
Writing application                      : Lavf54.63.100
Writing library                          : Lavf54.63.100
COMMENT                                  : mircrew-releases

Video
ID                                       : 1
Format                                   : AVC
Format/Info                              : Advanced Video Codec
Format profile                           : [email protected]
Format settings, CABAC                   : Yes
Format settings, ReFrames                : 2 frames
Codec ID                                 : V_MPEG4/ISO/AVC
Duration                                 : 1h 53mn
Bit rate                                 : 1 900 Kbps
Width                                    : 1 280 pixels
Height                                   : 528 pixels
Display aspect ratio                     : 2.40:1
Frame rate mode                          : Variable
Frame rate                               : 23.976 fps
Color space                              : YUV
Chroma subsampling                       : 4:2:0
Bit depth                                : 8 bits
Scan type                                : Progressive
Bits/(Pixel*Frame)                       : 0.117
Stream size                              : 1.45 GiB (66%)
Writing library                          : x264 core 130 r2273
Encoding settings                        : cabac=1 / ref=2 / deblock=1:0:0 / analyse=0x1:0x131 / me=hex / subme=7 / psy=1 / psy_rd=1.00:0.00 / mixed_ref=0 / me_range=16 / chroma_me=1 / trellis=1 / 8x8dct=0 / cqm=0 / deadzone=21,11 / fast_pskip=1 / chroma_qp_offset=-2 / threads=9 / lookahead_threads=1 / sliced_threads=0 / nr=0 / decimate=1 / interlaced=0 / bluray_compat=0 / constrained_intra=0 / bframes=3 / b_pyramid=0 / b_adapt=1 / b_bias=0 / direct=3 / weightb=1 / open_gop=0 / weightp=2 / keyint=230 / keyint_min=23 / scenecut=40 / intra_refresh=0 / rc_lookahead=40 / rc=abr / mbtree=1 / bitrate=1900 / ratetol=1.0 / qcomp=0.60 / qpmin=10 / qpmax=69 / qpstep=4 / vbv_maxrate=24000 / vbv_bufsize=24000 / nal_hrd=none / ip_ratio=1.40 / aq=1:1.00
Language                                 : Italian
Default                                  : Yes
Forced                                   : No

Audio #1
ID                                       : 2
Format                                   : AC-3
Format/Info                              : Audio Coding 3
Mode extension                           : CM (complete main)
Codec ID                                 : A_AC3
Duration                                 : 1h 53mn
Bit rate mode                            : Constant
Bit rate                                 : 448 Kbps
Channel(s)                               : 6 channels
Channel positions                        : Front: L C R, Side: L R, LFE
Sampling rate                            : 48.0 KHz
Bit depth                                : 16 bits
Compression mode                         : Lossy
Delay relative to video                  : 1mn 5s
Stream size                              : 362 MiB (16%)
Title                                    : Ita Ac3 5.1
Language                                 : Italian
Default                                  : Yes
Forced                                   : No

Audio #2
ID                                       : 3
Format                                   : AC-3
Format/Info                              : Audio Coding 3
Mode extension                           : CM (complete main)
Codec ID                                 : A_AC3
Duration                                 : 1h 53mn
Bit rate mode                            : Constant
Bit rate                                 : 448 Kbps
Channel(s)                               : 6 channels
Channel positions                        : Front: L C R, Side: L R, LFE
Sampling rate                            : 48.0 KHz
Bit depth                                : 16 bits
Compression mode                         : Lossy
Delay relative to video                  : 1mn 5s
Stream size                              : 362 MiB (16%)
Title                                    : Eng Ac3 5.1
Language                                 : English
Default                                  : No
Forced                                   : No





Info: Per scaricare devi usare un client come uTorrent o Transmission
AnnounceURL
udp://tracker.coppersurfer.tk:6969/announce
Hash bd8c03a03d60da7944a05c3f4e5dcde1f8186a55
Peers seeds: 45 , leech: 13
Size 2.21 GB
Completato 441x
Aggiunto 15.05.19 - 15:05:34
Uploader   robbyrs
Votazione (Voti: 0)


Condividi questo bittorrent:


html/blog:


bbcode/forum:




Aggiungi Commento