Loading...
 * Dettagli Torrent   globale  | Commenti (0) 


- Boy Erased (2018).720p.H264.italian.english.Ac3-5.1.sub.ita.eng-MIRCrew -


Download via torrent:
Categoria bittorrent BDRip
Descrizione
visitate mircrew-releases


Boy Erased 2018.720p.H264.italian.english.Ac3-5.1.sub.ita.eng-MIRCrew


NO FOUND ONLY ORIGINAL RELEASE

My release is always in double track audio italian and Original audio
for select it use VLC or dvd player home
not use wmp

Boy Erased 2018

Quality MIRCrew on HD 720p da  2,2 gb










GENERE: Drammatico
ANNO: 2018
REGIA: Joel Edgerton
PAESE: USA
DURATA: 114 Min



Nicole Kidman, Lucas Hedges, Russell Crowe, Joel Edgerton, Xavier Dolan, Cherry Jones, Flea, Troye Sivan



racconta la vera storia della crescita, della presa di coscienza e della dichiarazione della propria omosessualità di Jared Eamons (Lucas Hedges), figlio di un pastore battista di una piccola città dell'America rurale, che all'età di 19 anni ha deciso di aprirsi con i suoi genitori (Nicole Kidman e Russell Crowe), riguardo alle proprie preferenze sessuali.



The son of a Baptist preacher is forced to participate in a church-supported gay conversion program after being forcibly outed to his parents





General
Unique ID                                : 230479254363684335980891695909130382394 (0xAD64B093B6457C5AA8756E283992AC3A)
Complete name                            : Boy Erased (201.720p.h264.ita.eng.sub.ita.eng-MIRCrewBoy Erased (201.720p.h264.ita.eng.sub.ita.eng-MIRCrew.mkv
Format                                   : Matroska
Format version                           : Version 2
File size                                : 2.22 GiB
Duration                                 : 1h 54mn
Overall bit rate                         : 2 767 Kbps
Movie name                               : MIRCrew
Encoded date                             : UTC 2019-05-12T14:44:06Z
Writing application                      : mkvmerge v5.8.0 ('No Sleep / Pillow&#39 built on Sep  2 2012 15:37:04
Writing library                          : Lavf55.12.0

Video
ID                                       : 1
Format                                   : AVC
Format/Info                              : Advanced Video Codec
Format profile                           : [email protected]
Format settings, CABAC                   : Yes
Format settings, ReFrames                : 4 frames
Codec ID                                 : V_MPEG4/ISO/AVC
Duration                                 : 1h 54mn
Bit rate                                 : 1 950 Kbps
Width                                    : 1 280 pixels
Height                                   : 704 pixels
Display aspect ratio                     : 16:9
Frame rate                               : 23.976 fps
Color space                              : YUV
Chroma subsampling                       : 4:2:0
Bit depth                                : 8 bits
Scan type                                : Progressive
Bits/(Pixel*Frame)                       : 0.090
Stream size                              : 1.51 GiB (68%)
Title                                    : MIRCrew
Writing library                          : x264 core 142 r2479 dd79a61
Encoding settings                        : cabac=1 / ref=1 / deblock=1:0:0 / analyse=0x1:0x111 / me=hex / subme=2 / psy=1 / psy_rd=1.00:0.00 / mixed_ref=0 / me_range=16 / chroma_me=1 / trellis=0 / 8x8dct=0 / cqm=0 / deadzone=21,11 / fast_pskip=1 / chroma_qp_offset=0 / threads=9 / lookahead_threads=3 / sliced_threads=0 / nr=0 / decimate=1 / interlaced=0 / bluray_compat=0 / constrained_intra=0 / bframes=3 / b_pyramid=2 / b_adapt=1 / b_bias=0 / direct=1 / weightb=1 / open_gop=0 / weightp=1 / keyint=240 / keyint_min=24 / scenecut=40 / intra_refresh=0 / rc_lookahead=10 / rc=abr / mbtree=1 / bitrate=1950 / ratetol=1.0 / qcomp=0.60 / qpmin=0 / qpmax=69 / qpstep=4 / vbv_maxrate=20000 / vbv_bufsize=25000 / nal_hrd=none / filler=0 / ip_ratio=1.40 / aq=1:1.00
Language                                 : Italian
Default                                  : Yes
Forced                                   : No
Color primaries                          : BT.709-5, BT.1361, IEC 61966-2-4, SMPTE RP177
Transfer characteristics                 : BT.709-5, BT.1361
Matrix coefficients                      : BT.709-5, BT.1361, IEC 61966-2-4 709, SMPTE RP177

Audio #1
ID                                       : 2
Format                                   : AC-3
Format/Info                              : Audio Coding 3
Mode extension                           : CM (complete main)
Codec ID                                 : A_AC3
Duration                                 : 1h 54mn
Bit rate mode                            : Constant
Bit rate                                 : 448 Kbps
Channel(s)                               : 6 channels
Channel positions                        : Front: L C R, Side: L R, LFE
Sampling rate                            : 48.0 KHz
Bit depth                                : 16 bits
Compression mode                         : Lossy
Delay relative to video                  : -5ms
Stream size                              : 368 MiB (16%)
Title                                    : Ita Ac3 5.1
Language                                 : Italian
Default                                  : Yes
Forced                                   : No

Audio #2
ID                                       : 3
Format                                   : AC-3
Format/Info                              : Audio Coding 3
Mode extension                           : CM (complete main)
Codec ID                                 : A_AC3
Duration                                 : 1h 54mn
Bit rate mode                            : Constant
Bit rate                                 : 384 Kbps
Channel(s)                               : 6 channels
Channel positions                        : Front: L C R, Side: L R, LFE
Sampling rate                            : 48.0 KHz
Bit depth                                : 16 bits
Compression mode                         : Lossy
Delay relative to video                  : -5ms
Stream size                              : 315 MiB (14%)
Title                                    : Eng Ac3 5.1
Language                                 : English
Default                                  : No
Forced                                   : No

Menu
00:00:00.000                             : :00:00:00.000
00:04:40.488                             : :00:04:40.405
00:10:40.139                             : :00:10:40.056
00:18:15.969                             : :00:18:15.886
00:22:47.991                             : :00:22:47.783
00:30:43.883                             : :00:30:43.800
00:42:08.442                             : :00:42:08.359
00:46:27.826                             : :00:46:27.702
00:53:50.644                             : :00:53:50.519
00:57:50.925                             : :00:57:50.801
01:02:15.648                             : :01:02:15.565
01:06:35.157                             : :01:06:35.074
01:11:49.930                             : :01:11:49.847
01:15:44.123                             : :01:15:43.998
01:20:59.604                             : :01:20:59.521
01:25:29.207                             : :01:25:29.124
01:29:59.978                             : :01:29:59.853
01:34:30.164                             : :01:34:30.081
01:41:24.411                             : :01:41:24.328
01:48:41.264                             : :01:48:41.181





Info: Per scaricare devi usare un client come uTorrent o Transmission
AnnounceURL
udp://tracker.coppersurfer.tk:6969/announce
Hash 82e7f70af29ff9ed545860014eb09e7feaec6558
Peers seeds: 87 , leech: 29
Size 2.22 GB
Completato 620x
Aggiunto 15.05.19 - 12:05:31
Uploader   robbyrs
Votazione (Voti: 0)


Condividi questo bittorrent:


html/blog:


bbcode/forum:




Aggiungi Commento