Loading...
 * Dettagli Torrent   globale  | Commenti (0) 


- Il teschio maledetto (1965).720p.H264.italian.english.Ac3-MIRCrew mux by robbyrs -


Download via torrent:
Categoria bittorrent BDRip
Descrizione
Visitate mircrew-releases

The Skull - Il teschio maledetto (1965).720p.H264.italian.english.Ac3-MIRCrew mux by robbyrs


NO FOUND ONLY ORIGINAL RELEASE

My release is always in double track audio italian and Original audio
for select it use VLC or dvd player home
not use wmp

Il teschio maledetto - The Skull (1965)

Quality MIRCrew on HD 720p da  1,4 gb mux by robbyrs











Titolo originale The Skull
Paese di produzione Regno Unito
Anno 1965
Durata 82 min
Genere orrore
Regia Freddie Francis
Soggetto Robert Bloch
Sceneggiatura Milton Subotsky
Produttore Max J. Rosenberg e Milton Subotsky
Casa di produzione Amicus
Fotografia John Wilcox
Montaggio Oswald Hafenrichter
Effetti speciali Ted Samuels
Musiche Elisabeth Lutyens
Scenografia Bill Constable



Interpreti e personaggi

   Peter Cushing: Dr. Christopher Maitland
   Christopher Lee: Sir Matthew Phillips
   Patrick Wymark: Anthony Marco
   Jill Bennett: Jane Maitland
   Nigel Green: Ispettore Wilson
   Patrick Magee: Police Surgeon
   Peter Woodthorpe: Bert Travers
   Michael Gough: Auctioneer
   George Coulouris: Dr. Londe
   April Olrich: French Girl
   Maurice Good: Pierre, il frenologo
   Anna Palk: Donna di servizio
   Frank Forsyth: Giudice
   Paul Stockman: First Guard
   Geoffrey Cheshire: Second Guard
   George Hilslon: Poliziotto
   Jack Silk: Autista
   


Il collezionista e studioso di magia, Christopher Maitland, grazie al venditore di oggetti misteriosi, Marco, riesce ad entrare in possesso prima del libro e poi, a seguito della morte di Marco, del teschio del marchese de Sade. Maitland, nonostante i consigli della moglie Jane, cade vittima dell’influsso malefico del teschio, che lo condurrà................



A collector comes into possession of the skull of the Marquis de Sade and learns it is possessed by an evil spirit.





General
Unique ID                                : 175466568477694444793731945101791144009 (0x8401A1C0B9B5114CAF3F8B718B9D2849)
Complete name                            : Il teschio maledetto - The Skull (1965).720p.h264.ita.eng-MIRcrew mux by robbyrsIl teschio maledetto - The Skull (1965).720p.h264.ita.eng-MIRcrew mux (1).mkv
Format                                   : Matroska
Format version                           : Version 2
File size                                : 1.40 GiB
Duration                                 : 1h 23mn
Overall bit rate                         : 2 410 Kbps
Movie name                               : MIRCrew
Encoded date                             : UTC 2019-05-08 15:43:08
Writing application                      : mkvmerge v5.4.0 ('Piper&#39 built on Mar 10 2012 13:34:39
Writing library                          : Lavf54.63.100
ARTIST                                   : robbyrs
COMMENT                                  : mircrew-releases
COPYRIGHT                                : MIRCrew

Video
ID                                       : 1
Format                                   : AVC
Format/Info                              : Advanced Video Codec
Format profile                           : [email protected]
Format settings, CABAC                   : Yes
Format settings, ReFrames                : 2 frames
Codec ID                                 : V_MPEG4/ISO/AVC
Duration                                 : 1h 23mn
Bit rate                                 : 2 000 Kbps
Width                                    : 1 280 pixels
Height                                   : 544 pixels
Display aspect ratio                     : 2.35:1
Frame rate mode                          : Variable
Frame rate                               : 23.976 fps
Color space                              : YUV
Chroma subsampling                       : 4:2:0
Bit depth                                : 8 bits
Scan type                                : Progressive
Bits/(Pixel*Frame)                       : 0.120
Stream size                              : 1.15 GiB (82%)
Title                                    : MIRCrew
Writing library                          : x264 core 130 r2273
Encoding settings                        : cabac=1 / ref=2 / deblock=1:0:0 / analyse=0x1:0x131 / me=hex / subme=7 / psy=1 / psy_rd=1.00:0.00 / mixed_ref=0 / me_range=16 / chroma_me=1 / trellis=1 / 8x8dct=0 / cqm=0 / deadzone=21,11 / fast_pskip=1 / chroma_qp_offset=-2 / threads=9 / lookahead_threads=1 / sliced_threads=0 / nr=0 / decimate=1 / interlaced=0 / bluray_compat=0 / constrained_intra=0 / bframes=3 / b_pyramid=0 / b_adapt=1 / b_bias=0 / direct=3 / weightb=1 / open_gop=0 / weightp=2 / keyint=230 / keyint_min=23 / scenecut=40 / intra_refresh=0 / rc_lookahead=40 / rc=abr / mbtree=1 / bitrate=2000 / ratetol=1.0 / qcomp=0.60 / qpmin=10 / qpmax=69 / qpstep=4 / vbv_maxrate=24000 / vbv_bufsize=24000 / nal_hrd=none / ip_ratio=1.40 / aq=1:1.00
Language                                 : Italian
Default                                  : Yes
Forced                                   : No

Audio #1
ID                                       : 2
Format                                   : AC-3
Format/Info                              : Audio Coding 3
Mode extension                           : CM (complete main)
Codec ID                                 : A_AC3
Duration                                 : 1h 23mn
Bit rate mode                            : Constant
Bit rate                                 : 192 Kbps
Channel(s)                               : 2 channels
Channel positions                        : Front: L R
Sampling rate                            : 48.0 KHz
Bit depth                                : 16 bits
Compression mode                         : Lossy
Delay relative to video                  : -18ms
Stream size                              : 114 MiB (8%)
Title                                    : Ita Ac3 2.0 mux by robbyrs
Language                                 : English
Default                                  : Yes
Forced                                   : No

Audio #2
ID                                       : 3
Format                                   : AC-3
Format/Info                              : Audio Coding 3
Mode extension                           : CM (complete main)
Codec ID                                 : A_AC3
Duration                                 : 1h 23mn
Bit rate mode                            : Constant
Bit rate                                 : 192 Kbps
Channel(s)                               : 2 channels
Channel positions                        : Front: L R
Sampling rate                            : 48.0 KHz
Bit depth                                : 16 bits
Compression mode                         : Lossy
Delay relative to video                  : -5ms
Stream size                              : 114 MiB (8%)
Title                                    : Eng Ac3 2.0
Language                                 : English
Default                                  : No
Forced                                   : No






Info: Per scaricare devi usare un client come uTorrent o Transmission
AnnounceURL
udp://tracker.coppersurfer.tk:6969/announce
Hash fc7dedd668d82400e5642e7a5f0722df9fab4e09
Peers seeds: 28 , leech: 1
Size 1.40 GB
Completato 413x
Aggiunto 12.05.19 - 15:05:25
Uploader   robbyrs
Votazione (Voti: 0)


Condividi questo bittorrent:


html/blog:


bbcode/forum:




Aggiungi Commento