Loading...
 * Dettagli Torrent   globale  | Commenti (0) 


- Casa Da Gioco (1955).H264.italian.english.Ac3.sub.ita-MIRCrew -


Download via torrent:
Categoria bittorrent BDRip
Descrizione
visitate mircrew-releases

One Desire - Casa Da Gioco (1955).H264.italian.english.Ac3.sub.ita-MIRCrew


NO FOUND ONLY ORIGINAL RELEASE

My release is always in double track audio italian and Original audio
for select it use VLC or dvd player home
not use wmp

Casa Da Gioco - One Desire (1955)










Titolo originale One Desire
Lingua originale inglese
Paese di produzione Stati Uniti d'America
Anno 1955
Durata 94 min
Rapporto 1,85:1
Genere western, drammatico
Regia Jerry Hopper
Soggetto Conrad Richter
Sceneggiatura Lawrence Roman, Robert Blees



   Anne Baxter: Tacey Cromwell
   Rock Hudson: Clint Saunders
   Julie Adams: Judith Watrous
   Carl Benton Reid: senatore Kenneth Watrous
   Natalie Wood: Seely Dowder
   William Hopper: "Mac" MacBain
   Betty Garde: signora O'Dell
   Barry Curtis: Nugget Saunders
   Smoki Whitfield: Sam
   Howard Wright: giudice Congin
   Fay Morley: Flo
   William Forrest: signor Wellington
   Damian O'Flynn: caposquadra dei pompieri



Tacey Cromwell è la direttrice di una sala da gioco dove gli uomini vengono intrattenuti dalla compagnia di alcune ragazze, in pratica poco più di un saloon.



In early 1900s, an Oklahoma gambler-casino dealer teams-up with a saloon dancer and together they seek a new life in a Colorado mining town where their relationship and respectability are tested.  








General
Unique ID                                : 233388925184983853979027630234281977780 (0xAF95126CA3C7B132BA0F574260FC27B4)
Complete name                            : Casa Da Gioco -  One Desire (1955).h264.ita.eng.sub.ita-MIRCrewCasa Da Gioco -  One Desire (1955).h264.ita.eng.sub.ita-MIRCrew.mkv
Format                                   : Matroska
Format version                           : Version 2
File size                                : 1.10 GiB
Duration                                 : 1h 33mn
Overall bit rate                         : 1 684 Kbps
Movie name                               : MIRCrew
Encoded date                             : UTC 2019-04-11T19:26:23Z
Writing application                      : mkvmerge v5.8.0 ('No Sleep / Pillow&#39 built on Sep  2 2012 15:37:04
Writing library                          : Lavf55.12.0

Video
ID                                       : 1
Format                                   : AVC
Format/Info                              : Advanced Video Codec
Format profile                           : [email protected]
Format settings, CABAC                   : Yes
Format settings, ReFrames                : 4 frames
Codec ID                                 : V_MPEG4/ISO/AVC
Duration                                 : 1h 33mn
Bit rate                                 : 1 300 Kbps
Width                                    : 720 pixels
Height                                   : 368 pixels
Display aspect ratio                     : 1.957
Frame rate                               : 23.976 fps
Color space                              : YUV
Chroma subsampling                       : 4:2:0
Bit depth                                : 8 bits
Scan type                                : Progressive
Bits/(Pixel*Frame)                       : 0.205
Stream size                              : 850 MiB (75%)
Title                                    : MIRCrew
Writing library                          : x264 core 142 r2479 dd79a61
Encoding settings                        : cabac=1 / ref=1 / deblock=1:-1:-1 / analyse=0x1:0x111 / me=hex / subme=2 / psy=1 / psy_rd=1.00:0.15 / mixed_ref=0 / me_range=16 / chroma_me=1 / trellis=0 / 8x8dct=0 / cqm=0 / deadzone=21,11 / fast_pskip=1 / chroma_qp_offset=0 / threads=9 / lookahead_threads=2 / sliced_threads=0 / nr=0 / decimate=1 / interlaced=0 / bluray_compat=0 / constrained_intra=0 / bframes=3 / b_pyramid=2 / b_adapt=1 / b_bias=0 / direct=1 / weightb=1 / open_gop=0 / weightp=1 / keyint=240 / keyint_min=24 / scenecut=40 / intra_refresh=0 / rc_lookahead=10 / rc=abr / mbtree=1 / bitrate=1300 / ratetol=1.0 / qcomp=0.60 / qpmin=0 / qpmax=69 / qpstep=4 / vbv_maxrate=50000 / vbv_bufsize=62500 / nal_hrd=none / filler=0 / ip_ratio=1.40 / aq=1:1.00
Language                                 : Italian
Default                                  : Yes
Forced                                   : No
Color primaries                          : BT.601-6 525, BT.1358 525, BT.1700 NTSC, SMPTE 170M
Transfer characteristics                 : BT.709-5, BT.1361
Matrix coefficients                      : BT.601-6 525, BT.1358 525, BT.1700 NTSC, SMPTE 170M

Audio #1
ID                                       : 2
Format                                   : AC-3
Format/Info                              : Audio Coding 3
Mode extension                           : CM (complete main)
Codec ID                                 : A_AC3
Duration                                 : 1h 33mn
Bit rate mode                            : Constant
Bit rate                                 : 192 Kbps
Channel(s)                               : 2 channels
Channel positions                        : Front: L R
Sampling rate                            : 48.0 KHz
Bit depth                                : 16 bits
Compression mode                         : Lossy
Delay relative to video                  : -5ms
Stream size                              : 129 MiB (11%)
Title                                    : Ita Ac3 5.1
Language                                 : Italian
Default                                  : Yes
Forced                                   : No

Audio #2
ID                                       : 3
Format                                   : AC-3
Format/Info                              : Audio Coding 3
Mode extension                           : CM (complete main)
Codec ID                                 : A_AC3
Duration                                 : 1h 33mn
Bit rate mode                            : Constant
Bit rate                                 : 192 Kbps
Channel(s)                               : 2 channels
Channel positions                        : Front: L R
Sampling rate                            : 48.0 KHz
Bit depth                                : 16 bits
Compression mode                         : Lossy
Delay relative to video                  : -5ms
Stream size                              : 129 MiB (11%)
Title                                    : Eng Ac3 5.1
Language                                 : English
Default                                  : No
Forced                                   : No

Menu
00:00:00.000                             : :Chapter 1
00:01:22.666                             : :Chapter 2
00:08:32.095                             : :Chapter 3
00:16:38.247                             : :Chapter 4
00:24:33.555                             : :Chapter 5
00:31:18.793                             : :Chapter 6
00:34:44.499                             : :Chapter 7
00:41:20.644                             : :Chapter 8
00:44:59.446                             : :Chapter 9
00:54:11.164                             : :Chapter 10
00:57:47.464                             : :Chapter 11
01:05:28.508                             : :Chapter 12
01:12:50.866                             : :Chapter 13
01:16:12.317                             : :Chapter 14
01:19:27.262                             : :Chapter 15
01:26:15.420                             : :Chapter 16
01:33:13.087                             : :Chapter 17




Info: Per scaricare devi usare un client come uTorrent o Transmission
AnnounceURL
udp://tracker.coppersurfer.tk:6969/announce
Hash 7e275b3bc6e4c01244d114baedefd24794b773c7
Peers seeds: 4 , leech: 3
Size 1.10 GB
Completato 197x
Aggiunto 11.05.19 - 17:05:45
Uploader   robbyrs
Votazione (Voti: 0)


Condividi questo bittorrent:


html/blog:


bbcode/forum:




Aggiungi Commento