Loading...
 * Dettagli Torrent   globale  | Commenti (0) 


- Alone in The Dark (2005).720p.H264.italian.english.Ac3-MIRCrew -


Download via torrent:
Categoria bittorrent BDRip
Descrizione
venite a trovarci su mircrew-releases

Alone in The Dark (2005).720p.H264.italian.english.Ac3-MIRCrew

NO FOUND ONLY ORIGINAL RELEASE

My release is always in double track audio italian and Original audio
for select it use VLC or dvd player home
not use wmp

[color=yellow]Alone in The Dark (2005)

Quality MIRCrew on HD 720p da  1,4 gb











Titolo originale Alone in the Dark
Lingua originale Inglese
Paese di produzione Canada, Germania, Stati Uniti
Anno 2005
Durata 96 min
Genere orrore, thriller, azione
Regia Uwe Boll
Soggetto Elan Mastai, Michael Roesch, Peter Scheerer
Sceneggiatura Elan Mastai, Michael Roesch, Peter Scheerer



   Christian Slater: Edward Carnby
   Tara Reid: Aline Cedrac
   Stephen Dorff: Richard Burke
   Frank C. Turner: Sam Fischer
   Matthew Walker: Prof. Lionel Hudgens
   Will Sanderson: Agente Miles
   Mark Acheson: Capitano Chernick
   Darren Shahlavi: John Dillon
   Karin Konoval: Suor Clara
   Craig Bruhnanski: Sceriffo
   Dustyn Arthurs: Carnby giovane
   Catherine Lough Haggquist: Krash
   Daniel Cudmore: Agente Barr
   Françoise Yip: Agente Cheung



Edward Carnby, un investigatore del paranormale, viene a sapere della morte di uno scienziato. Indagando, scopre che quest'ultimo era un suo amico di infanzia



Edward Carnby, detective of the paranormal, unexplained and supernatural, investigates a mystery (the recent death of a friend) with clues leading to "Shadow Island" that brings him face to face with bizarre horrors that prove both psychologically disturbing and lethal, as he discovers that evil demons worshiped by an ancient culture called the Abskani are planning on coming back to life in the 21st century to once again take over the world...





General
Unique ID                                : 32774168684604076343421694725623321063 (0x18A8134605BF0EA17199F1EB7EEB11E7)
Complete name                            : Alone in The Dark (2005).720p.h264.ita.eng-MIRCrewAlone in The Dark (2005).720p.h264.ita.eng-MIRCrew.mkv
Format                                   : Matroska
Format version                           : Version 2
File size                                : 1.58 GiB
Duration                                 : 1h 39mn
Overall bit rate                         : 2 263 Kbps
Movie name                               : MIRCrew
Encoded date                             : UTC 2019-04-30 17:29:58
Writing application                      : Lavf54.63.100
Writing library                          : Lavf54.63.100
COMMENT                                  : mircrew-releases

Video
ID                                       : 1
Format                                   : AVC
Format/Info                              : Advanced Video Codec
Format profile                           : [email protected]
Format settings, CABAC                   : Yes
Format settings, ReFrames                : 2 frames
Codec ID                                 : V_MPEG4/ISO/AVC
Duration                                 : 1h 39mn
Bit rate                                 : 1 900 Kbps
Width                                    : 1 264 pixels
Height                                   : 720 pixels
Display aspect ratio                     : 16:9
Frame rate mode                          : Variable
Frame rate                               : 23.976 fps
Color space                              : YUV
Chroma subsampling                       : 4:2:0
Bit depth                                : 8 bits
Scan type                                : Progressive
Bits/(Pixel*Frame)                       : 0.087
Stream size                              : 1.28 GiB (81%)
Writing library                          : x264 core 130 r2273
Encoding settings                        : cabac=1 / ref=2 / deblock=1:0:0 / analyse=0x1:0x131 / me=hex / subme=7 / psy=1 / psy_rd=1.00:0.00 / mixed_ref=0 / me_range=16 / chroma_me=1 / trellis=1 / 8x8dct=0 / cqm=0 / deadzone=21,11 / fast_pskip=1 / chroma_qp_offset=-2 / threads=9 / lookahead_threads=1 / sliced_threads=0 / nr=0 / decimate=1 / interlaced=0 / bluray_compat=0 / constrained_intra=0 / bframes=3 / b_pyramid=0 / b_adapt=1 / b_bias=0 / direct=3 / weightb=1 / open_gop=0 / weightp=2 / keyint=230 / keyint_min=23 / scenecut=40 / intra_refresh=0 / rc_lookahead=40 / rc=abr / mbtree=1 / bitrate=1900 / ratetol=1.0 / qcomp=0.60 / qpmin=10 / qpmax=69 / qpstep=4 / vbv_maxrate=24000 / vbv_bufsize=24000 / nal_hrd=none / ip_ratio=1.40 / aq=1:1.00
Language                                 : Italian
Default                                  : Yes
Forced                                   : No
DURATION                                 : 01:39:47.064000000

Audio #1
ID                                       : 2
Format                                   : AC-3
Format/Info                              : Audio Coding 3
Mode extension                           : CM (complete main)
Codec ID                                 : A_AC3
Duration                                 : 1h 39mn
Bit rate mode                            : Constant
Bit rate                                 : 192 Kbps
Channel(s)                               : 2 channels
Channel positions                        : Front: L R
Sampling rate                            : 48.0 KHz
Bit depth                                : 16 bits
Compression mode                         : Lossy
Delay relative to video                  : 1mn 5s
Stream size                              : 137 MiB (8%)
Language                                 : Italian
Default                                  : Yes
Forced                                   : No
DURATION                                 : 01:39:42.600000000

Audio #2
ID                                       : 3
Format                                   : AC-3
Format/Info                              : Audio Coding 3
Mode extension                           : CM (complete main)
Codec ID                                 : A_AC3
Duration                                 : 1h 39mn
Bit rate mode                            : Constant
Bit rate                                 : 192 Kbps
Channel(s)                               : 2 channels
Channel positions                        : Front: L R
Sampling rate                            : 48.0 KHz
Bit depth                                : 16 bits
Compression mode                         : Lossy
Delay relative to video                  : 1mn 5s
Stream size                              : 137 MiB (8%)
Language                                 : Italian
Default                                  : Yes
Forced                                   : No
DURATION                                 : 01:39:42.640000000




[/color]
Info: Per scaricare devi usare un client come uTorrent o Transmission
AnnounceURL
udp://tracker.coppersurfer.tk:6969/announce
Hash 72a3d52e500be904e6a85c323076e31a75034122
Peers seeds: 19 , leech: 2
Size 1.58 GB
Completato 525x
Aggiunto 08.05.19 - 18:05:44
Uploader   robbyrs
Votazione (Voti: 0)


Condividi questo bittorrent:


html/blog:


bbcode/forum:




Aggiungi Commento