Loading...
 * Dettagli Torrent   globale  | Commenti (2) 


- Stanlio.E.Ollio.2018.iTALiAN.MD.BDRip.XviD BY Mul1n0 -


Download via torrent:
Categoria bittorrent BDRip
Descrizione
Stanlio E Ollio (2019)
BY Mul1n0



.: Scheda del Film :.


Titolo originale:  Stan & Ollie
Nazionalità:   Usa
Anno:  2019
Genere:   biografico, commedia, drammatico
Regia:   Jon S. Baird

Cast:      

   Steve Coogan: Stan Laurel
   John C. Reilly: Oliver Hardy
   Shirley Henderson: Lucille Hardy
   Danny Huston: Hal Roach
   Nina Arianda: Ida Kitaeva Laurel
   Rufus Jones: Bernard Delfont
   Susy Kane: Cynthia Clark










.: Trama :.


Nel 1937, durante la produzione del film I fanciulli del West, la coppia comica Laurel e Hardy è all'apice del successo. Tuttavia, i rapporti tra Laurel e Hal Roach, produttore dei titoli più famosi, sono molto tesi e a un punto di rottura. Stan ritiene i compensi non all'altezza degli introiti generati dai loro film e, convinto di poter replicare il successo altrove, intende minacciare la rescissione dei loro contratti e proporsi con Oliver a un'altra casa di produzione. Oliver propende per una posizione più accomodante, e suggerisce di limitarsi a richiedere un ritocco del loro ingaggio. Roach, oltre a non smuoversi dalle sue posizioni, intende utilizzare una clausola del contratto di Stan, che gli impone un'altissima penale economica per via della cattiva pubblicità causata allo studio dalla sua turbolenta vita privata; Laurel, a sua volta, non fa mistero del suo disprezzo per Roach a causa della sua ammirazione per Benito Mussolini e dei suoi controversi legami d'affari con il regime fascista, sotto l'occhio del ciclone per via dell'utilizzo di armi chimiche nella Guerra d'Etiopia.

Giunto al termine del contratto, Stan ne negozierà uno nuovo con la 20th Century Fox per sé e Oliver; questi, tuttavia, ancora legato da un contratto individuale vincolante con Roach, deciderà a malincuore di onorarlo, girando un film (Zenobia) senza il suo compagno storico e non si presenterà all'appuntamento per la firma del nuovo contratto.  [2]

.: ScreenShot :.









.: Scheda tecnica del filmato :.


General
Complete name                            : C:Stanlio.E.Ollio.2018.iTALiAN.MD.BDRip.XviD-iSTANCE.avi
Format                                   : AVI
Format/Info                              : Audio Video Interleave
File size                                : 1.34 GiB
Duration                                 : 1 h 37 min
Overall bit rate                         : 1 967 kb/s
Writing library                          : VirtualDub build 35491/release

Video
ID                                       : 0
Format                                   : MPEG-4 Visual
Format profile                           : Advanced [email protected]
Format settings                          : BVOP2
Format settings, BVOP                    : 2
Format settings, QPel                    : No
Format settings, GMC                     : No warppoints
Format settings, Matrix                  : Default (MPEG)
Muxing mode                              : Packed bitstream
Codec ID                                 : XVID
Codec ID/Hint                            : XviD
Duration                                 : 1 h 37 min
Bit rate                                 : 1 829 kb/s
Width                                    : 720 pixels
Height                                   : 304 pixels
Display aspect ratio                     : 2.35:1
Frame rate                               : 23.976 (24000/1001) FPS
Color space                              : YUV
Chroma subsampling                       : 4:2:0
Bit depth                                : 8 bits
Scan type                                : Progressive
Compression mode                         : Lossy
Bits/(Pixel*Frame)                       : 0.349
Stream size                              : 1.25 GiB (93%)
Writing library                          : XviD 67

Audio
ID                                       : 1
Format                                   : MPEG Audio
Format version                           : Version 1
Format profile                           : Layer 3
Format settings                          : Joint stereo / MS Stereo
Codec ID                                 : 55
Codec ID/Hint                            : MP3
Duration                                 : 1 h 37 min
Bit rate mode                            : Constant
Bit rate                                 : 128 kb/s
Channel(s)                               : 2 channels
Sampling rate                            : 48.0 kHz
Frame rate                               : 41.667 FPS (1152 SPF)
Compression mode                         : Lossy
Stream size                              : 89.6 MiB (7%)
Alignment                                : Split accross interleaves
Interleave, duration                     : 42  ms (1.00 video frame)
Interleave, preload duration             : 500  ms
Writing library                          : LAME3.99r
Encoding settings                        : -m j -V 4 -q 3 -lowpass 17 -b 128












.: Note :.

Orario di seed e Banda disponibile: ai primi 10 completati, buon download

Info: Per scaricare devi usare un client come uTorrent o Transmission
AnnounceURL
udp://tracker.coppersurfer.tk:6969/announce
Hash ea3c52f286d95d2f0aa9611acf5e0d5ebd5143df
Peers seeds: 611 , leech: 229
Size 1.34 GB
Completato 1844x
Aggiunto 08.05.19 - 11:05:01
Uploader   Sfrank77
Votazione (Voti: 0)


Condividi questo bittorrent:


html/blog:


bbcode/forum:




Aggiungi Commento
Ultimi commenti
  
Video: 8 - Audio: 5
14/05 13.08
  
Audio rimbombante. Fastidioso.
10/05 13.27
Tutti commenti (2)