Loading...
 * Dettagli Torrent   globale  | Commenti (0) 


- Vice - L uomo nell ombra (2018).720p.H264.italian.english.Ac3-5.1.sub.ita-MIRCrew -


Download via torrent:
Categoria bittorrent BDRip
Descrizione
visitate mircrew-releases


Vice - L uomo nell ombra 2018.720p.H264.italian.english.Ac3-5.1.sub.ita-MIRCrew


NO FOUND ONLY ORIGINAL RELEASE

My release is always in double track audio italian and Original audio
for select it use VLC or dvd player home
not use wmp

Vice - L uomo nell ombra 2018

Quality MIRCrew on HD 720p da  2,6 gb










GENERE: Biografico, Drammatico, Commedia
ANNO: 2018
REGIA: Adam McKay
PAESE: USA
DURATA: 132 Min



Christian Bale, Amy Adams, Steve Carell, Sam Rockwell, Jesse Plemons, Shea Whigham, Alison Pill, Lily Rabe, Eddie Marsan, Tyler Perry, Justin Kirk, Bill Camp, Fay Masterson, Lisa Gay Hamilton



Vice racconta in modo inedito e non convenzionale l'ascesa al potere dell'ex vicepresidente degli USA Dick Cheney (Christian Bale), da stagista del Congresso a uomo più potente del pianeta. Un uomo riservatissimo che ha cambiato il mondo come pochi leader negli ultimi cinquant'anni.



The story of Dick Cheney, an unassuming bureaucratic Washington insider, who quietly wielded immense power as Vice President to George W. Bush, reshaping the country and the globe in ways that we still feel today.

 





General
Unique ID                                : 187695565532347374843968054984548363376 (0x8D34D9DBB5860CACB0E36D0D34192C70)
Complete name                            : Vice (201.720p.h264.ita.eng.sub.ita-MIRCrewVice (201.720p.h264.ita.eng.sub.ita-MIRCrew.mkv
Format                                   : Matroska
Format version                           : Version 2
File size                                : 2.58 GiB
Duration                                 : 2h 12mn
Overall bit rate                         : 2 787 Kbps
Movie name                               : MIRCrew
Encoded date                             : UTC 2019-04-21 10:32:20
Writing application                      : mkvmerge v5.8.0 ('No Sleep / Pillow&#39 built on Sep  2 2012 15:37:04
Writing library                          : Lavf54.63.100
COMMENT                                  : mircrew-releases

Video
ID                                       : 1
Format                                   : AVC
Format/Info                              : Advanced Video Codec
Format profile                           : [email protected]
Format settings, CABAC                   : Yes
Format settings, ReFrames                : 2 frames
Codec ID                                 : V_MPEG4/ISO/AVC
Duration                                 : 2h 12mn
Bit rate                                 : 1 900 Kbps
Width                                    : 1 280 pixels
Height                                   : 528 pixels
Display aspect ratio                     : 2.40:1
Frame rate mode                          : Variable
Frame rate                               : 24.000 fps
Color space                              : YUV
Chroma subsampling                       : 4:2:0
Bit depth                                : 8 bits
Scan type                                : Progressive
Bits/(Pixel*Frame)                       : 0.117
Stream size                              : 1.70 GiB (66%)
Title                                    : MIRCrew
Writing library                          : x264 core 130 r2273
Encoding settings                        : cabac=1 / ref=2 / deblock=1:0:0 / analyse=0x1:0x131 / me=hex / subme=7 / psy=1 / psy_rd=1.00:0.00 / mixed_ref=0 / me_range=16 / chroma_me=1 / trellis=1 / 8x8dct=0 / cqm=0 / deadzone=21,11 / fast_pskip=1 / chroma_qp_offset=-2 / threads=9 / lookahead_threads=1 / sliced_threads=0 / nr=0 / decimate=1 / interlaced=0 / bluray_compat=0 / constrained_intra=0 / bframes=3 / b_pyramid=0 / b_adapt=1 / b_bias=0 / direct=3 / weightb=1 / open_gop=0 / weightp=2 / keyint=240 / keyint_min=24 / scenecut=40 / intra_refresh=0 / rc_lookahead=40 / rc=abr / mbtree=1 / bitrate=1900 / ratetol=1.0 / qcomp=0.60 / qpmin=10 / qpmax=69 / qpstep=4 / vbv_maxrate=24000 / vbv_bufsize=24000 / nal_hrd=none / ip_ratio=1.40 / aq=1:1.00
Language                                 : Italian
Default                                  : Yes
Forced                                   : No

Audio #1
ID                                       : 2
Format                                   : AC-3
Format/Info                              : Audio Coding 3
Mode extension                           : CM (complete main)
Codec ID                                 : A_AC3
Duration                                 : 2h 12mn
Bit rate mode                            : Constant
Bit rate                                 : 448 Kbps
Channel(s)                               : 6 channels
Channel positions                        : Front: L C R, Side: L R, LFE
Sampling rate                            : 48.0 KHz
Bit depth                                : 16 bits
Compression mode                         : Lossy
Delay relative to video                  : -5ms
Stream size                              : 424 MiB (16%)
Title                                    : Ita Ac3 5.1
Language                                 : Italian
Default                                  : Yes
Forced                                   : No

Audio #2
ID                                       : 3
Format                                   : AC-3
Format/Info                              : Audio Coding 3
Mode extension                           : CM (complete main)
Codec ID                                 : A_AC3
Duration                                 : 2h 12mn
Bit rate mode                            : Constant
Bit rate                                 : 448 Kbps
Channel(s)                               : 6 channels
Channel positions                        : Front: L C R, Side: L R, LFE
Sampling rate                            : 48.0 KHz
Bit depth                                : 16 bits
Compression mode                         : Lossy
Delay relative to video                  : -5ms
Stream size                              : 424 MiB (16%)
Title                                    : Eng Ac3 5.1
Language                                 : English
Default                                  : No
Forced                                   : No

Menu
00:00:00.000                             : :Chapter 1
00:03:05.602                             : :Chapter 2
00:07:50.804                             : :Chapter 3
00:13:33.980                             : :Chapter 4
00:19:29.919                             : :Chapter 5
00:26:39.348                             : :Chapter 6
00:33:10.447                             : :Chapter 7
00:37:50.852                             : :Chapter 8
00:42:01.728                             : :Chapter 9
00:51:35.467                             : :Chapter 10
00:56:00.899                             : :Chapter 11
01:00:24.204                             : :Chapter 12
01:06:50.548                             : :Chapter 13
01:10:11.249                             : :Chapter 14
01:13:14.432                             : :Chapter 15
01:17:04.078                             : :Chapter 16
01:23:49.149                             : :Chapter 17
01:26:43.532                             : :Chapter 18
01:34:42.302                             : :Chapter 19
01:39:09.443                             : :Chapter 20
01:44:44.987                             : :Chapter 21
01:49:41.158                             : :Chapter 22
01:59:18.860                             : :Chapter 23
02:02:20.208                             : :Chapter 24




Info: Per scaricare devi usare un client come uTorrent o Transmission
AnnounceURL
udp://tracker.coppersurfer.tk:6969/announce
Hash 0b51cb35ec6a78bd8bde1c382ef5b89ff520b224
Peers seeds: 102 , leech: 14
Size 2.58 GB
Completato 2589x
Aggiunto 07.05.19 - 18:05:45
Uploader   robbyrs
Votazione (Voti: 2)


Condividi questo bittorrent:


html/blog:


bbcode/forum:




Aggiungi Commento