Loading...
 * Dettagli Torrent   globale  | Commenti (0) 


- A Ciambra (2017).720p.H264.italian.Ac3-5.1.sub.eng.spa-MIRCrew -


Download via torrent:
Categoria bittorrent BDRip
Descrizione
visitate mircrew-releases

A Ciambra (2017).720p.H264.italian.Ac3-5.1.sub.eng.spa-MIRCrew


NO FOUND ONLY ORIGINAL RELEASE

My release is always in double track audio italian and Original audio
for select it use VLC or dvd player home
not use wmp

ENGLISH SUBTITLE INSIDE

A Ciambra (2017)

Quality MIRCrew on HD 720p da  1,8 gb











Riconoscimenti
2017 - Festival di Cannes

   Premio Europa Cinema Label

2018 - David di Donatello

   Miglior regista a Jonas Carpignano
   Miglior montaggio a Affonso Gonçalves

Lingua originale Calabrese (dialetto reggino), italiano, inglese
Paese di produzione Italia, Brasile, Francia, Germania, Stati Uniti d'America, Svezia
Anno 2017
Durata 118 min
Rapporto 1,85:1
Genere drammatico
Regia Jonas Carpignano
Sceneggiatura Jonas Carpignano



   Pio Amato: Pio
   Koudous Seihon: Ayiva
   Iolanda Amato: Iolanda
   Damiano Amato: Cosimo
   U Ciccarredù: nonno Emiliano
   Francisco Berlingeri: Emiliano (giovane)



In Calabria, nella comunità rom di Gioia Tauro, la Ciambra, vive Pio, adolescente sveglio e smaliziato cresciuto molto in fretta. Tra alcol, fumo e furti, segue le orme criminali del fratello Cosimo, intessendo relazioni con tutte le diverse realtà etniche e sociali presenti nel suo degradato quartiere.



In A CIAMBRA, a small Romani community in Calabria, Pio Amato is desperate to grow up fast. At 14, he drinks, smokes and is one of the few to easily slide between the region's factions





General
Unique ID                                : 169064682195583945564536418465273267492 (0x7F30AC63CDAA14737889AEA4FD82C524)
Complete name                            : A Ciambra (2017).720p.h264.ita.sub.eng.spa-MIRCrewA Ciambra (2017).720p.h264.ita.sub.eng-MIRCrew.mkv
Format                                   : Matroska
Format version                           : Version 2
File size                                : 1.86 GiB
Duration                                 : 1h 57mn
Overall bit rate                         : 2 266 Kbps
Movie name                               : MIRCrew
Encoded date                             : UTC 2018-07-11 09:07:05
Writing application                      : Lavf54.63.100
Writing library                          : Lavf54.63.100
COMPOSER                                 : mircrew-releases
COMMENT                                  : A.Ciambra.2017.ITALIAN.1080p.BluRay.H264.AAC-VXT

Video
ID                                       : 1
Format                                   : AVC
Format/Info                              : Advanced Video Codec
Format profile                           : [email protected]
Format settings, CABAC                   : Yes
Format settings, ReFrames                : 2 frames
Codec ID                                 : V_MPEG4/ISO/AVC
Duration                                 : 1h 57mn
Bit rate                                 : 1 900 Kbps
Width                                    : 1 280 pixels
Height                                   : 688 pixels
Display aspect ratio                     : 16:9
Frame rate mode                          : Variable
Frame rate                               : 23.976 fps
Color space                              : YUV
Chroma subsampling                       : 4:2:0
Bit depth                                : 8 bits
Scan type                                : Progressive
Bits/(Pixel*Frame)                       : 0.090
Stream size                              : 1.51 GiB (81%)
Writing library                          : x264 core 130 r2273
Encoding settings                        : cabac=1 / ref=2 / deblock=1:0:0 / analyse=0x1:0x131 / me=hex / subme=7 / psy=1 / psy_rd=1.00:0.00 / mixed_ref=0 / me_range=16 / chroma_me=1 / trellis=1 / 8x8dct=0 / cqm=0 / deadzone=21,11 / fast_pskip=1 / chroma_qp_offset=-2 / threads=6 / lookahead_threads=1 / sliced_threads=0 / nr=0 / decimate=1 / interlaced=0 / bluray_compat=0 / constrained_intra=0 / bframes=3 / b_pyramid=0 / b_adapt=1 / b_bias=0 / direct=3 / weightb=1 / open_gop=0 / weightp=2 / keyint=230 / keyint_min=23 / scenecut=40 / intra_refresh=0 / rc_lookahead=40 / rc=abr / mbtree=1 / bitrate=1900 / ratetol=1.0 / qcomp=0.60 / qpmin=10 / qpmax=69 / qpstep=4 / vbv_maxrate=24000 / vbv_bufsize=24000 / nal_hrd=none / ip_ratio=1.40 / aq=1:1.00
Language                                 : Italian
Default                                  : Yes
Forced                                   : No
Encoded date                             : UTC 2018-07-11 09:07:05
HANDLER_NAME                             : VideoHandler

Audio
ID                                       : 2
Format                                   : AC-3
Format/Info                              : Audio Coding 3
Mode extension                           : CM (complete main)
Codec ID                                 : A_AC3
Duration                                 : 1h 57mn
Bit rate mode                            : Constant
Bit rate                                 : 384 Kbps
Channel(s)                               : 6 channels
Channel positions                        : Front: L C R, Side: L R, LFE
Sampling rate                            : 48.0 KHz
Bit depth                                : 16 bits
Compression mode                         : Lossy
Delay relative to video                  : 1mn 5s
Stream size                              : 323 MiB (17%)
Language                                 : Italian
Default                                  : Yes
Forced                                   : No
Encoded date                             : UTC 2018-07-11 09:07:05
HANDLER_NAME                             : SoundHandler





Info: Per scaricare devi usare un client come uTorrent o Transmission
AnnounceURL
udp://tracker.coppersurfer.tk:6969/announce
Hash 53d3921caffbd5d9f2807eb78143e2c2618e4c05
Peers seeds: 31 , leech: 7
Size 1.88 GB
Completato 802x
Aggiunto 07.05.19 - 12:05:06
Uploader   robbyrs
Votazione (Voti: 0)


Condividi questo bittorrent:


html/blog:


bbcode/forum:




Aggiungi Commento