Loading...
 * Dettagli Torrent   globale  | Commenti (0) 


- La Befana vien di notte (2018).720p.H264.italian.Ac3-5.1.sub.NUita-MIRCrew -


Download via torrent:
Categoria bittorrent BDRip
Descrizione
visitate mircrew-releases

La Befana vien di notte(2018.720p.H264.italian.Ac3-5.1.sub.NUita-MIRCrew


NO FOUND ONLY ORIGINAL RELEASE

My release is always in double track audio italian and Original audio
for select it use VLC or dvd player home
not use wmp

SOTTOTITOLI ITALIANI PER NON UDENTI INCLUSI

La Befana vien di notte 2018

Quality MIRCrew on HD 720p da  1,6 gb











Lingua originale italiano
Paese di produzione Italia, Spagna
Anno 2018
Rapporto 2,35 : 1
Genere commedia, fantastico, avventura
Regia Michele Soavi
Soggetto Nicola Guaglianone
Sceneggiatura Nicola Guaglianone



   Paola Cortellesi: Paola / Befana
   Stefano Fresi: Mr. Johnny
   Fausto Maria Sciarappa: Giacomo
   Giovanni Calcagno: Igor
   Giuseppe Lo Piccolo: Smilzo
   Luca Avagliano: Gino
   Odette Adado: Emilia
   Jasper Gonzales Cabal: Giuseppe
   Diego Delpiano: Ivan
   Robert Ganea: Leo
   Francesco Mura: Riccardo
   Cloe Romagnoli: Sveva



Paola è una maestra di scuola elementare, ma nasconde un segreto: bella e giovane di giorno, di notte si trasforma nell'eterna e leggendaria Befana.



During the day Paola is an ordinary primary school teacher, but at night, she turns into The Christmas Witch, a magical creature who brings gifts to the good kids.  

 






General
Unique ID                                : 141421114641844838608901537969570893412 (0x6A64B748383D2A2461F3A5E83D0CCE64)
Complete name                            : La Befana vien di notte (201.720p.h264.ita.sub.NUita-MIRCrewLa Befana vien di notte (201.720p.h264.ita.sub.NUita-MIRCrew.mkv
Format                                   : Matroska
Format version                           : Version 2
File size                                : 1.61 GiB
Duration                                 : 1h 38mn
Overall bit rate                         : 2 339 Kbps
Movie name                               : MIRCrew
Encoded date                             : UTC 2019-04-16 19:44:44
Writing application                      : Lavf54.63.100
Writing library                          : Lavf54.63.100

Video
ID                                       : 1
Format                                   : AVC
Format/Info                              : Advanced Video Codec
Format profile                           : [email protected]
Format settings, CABAC                   : Yes
Format settings, ReFrames                : 2 frames
Codec ID                                 : V_MPEG4/ISO/AVC
Duration                                 : 1h 38mn
Bit rate                                 : 1 900 Kbps
Width                                    : 1 280 pixels
Height                                   : 528 pixels
Display aspect ratio                     : 2.40:1
Frame rate mode                          : Variable
Frame rate                               : 24.000 fps
Color space                              : YUV
Chroma subsampling                       : 4:2:0
Bit depth                                : 8 bits
Scan type                                : Progressive
Bits/(Pixel*Frame)                       : 0.117
Stream size                              : 1.27 GiB (79%)
Writing library                          : x264 core 130 r2273
Encoding settings                        : cabac=1 / ref=2 / deblock=1:0:0 / analyse=0x1:0x131 / me=hex / subme=7 / psy=1 / psy_rd=1.00:0.00 / mixed_ref=0 / me_range=16 / chroma_me=1 / trellis=1 / 8x8dct=0 / cqm=0 / deadzone=21,11 / fast_pskip=1 / chroma_qp_offset=-2 / threads=9 / lookahead_threads=1 / sliced_threads=0 / nr=0 / decimate=1 / interlaced=0 / bluray_compat=0 / constrained_intra=0 / bframes=3 / b_pyramid=0 / b_adapt=1 / b_bias=0 / direct=3 / weightb=1 / open_gop=0 / weightp=2 / keyint=240 / keyint_min=24 / scenecut=40 / intra_refresh=0 / rc_lookahead=40 / rc=abr / mbtree=1 / bitrate=1900 / ratetol=1.0 / qcomp=0.60 / qpmin=10 / qpmax=69 / qpstep=4 / vbv_maxrate=24000 / vbv_bufsize=24000 / nal_hrd=none / ip_ratio=1.40 / aq=1:1.00
Language                                 : Italian
Default                                  : Yes
Forced                                   : No

Audio
ID                                       : 2
Format                                   : AC-3
Format/Info                              : Audio Coding 3
Mode extension                           : CM (complete main)
Codec ID                                 : A_AC3
Duration                                 : 1h 38mn
Bit rate mode                            : Constant
Bit rate                                 : 448 Kbps
Channel(s)                               : 6 channels
Channel positions                        : Front: L C R, Side: L R, LFE
Sampling rate                            : 48.0 KHz
Bit depth                                : 16 bits
Compression mode                         : Lossy
Delay relative to video                  : 1mn 5s
Stream size                              : 316 MiB (19%)
Title                                    : AC3 5.1
Language                                 : Italian
Default                                  : No
Forced                                   : No



Info: Per scaricare devi usare un client come uTorrent o Transmission
AnnounceURL
udp://tracker.coppersurfer.tk:6969/announce
Hash 70b1735cd6fb79ad628cd52f8304d42fe933b589
Peers seeds: 80 , leech: 8
Size 1.61 GB
Completato 2200x
Aggiunto 04.05.19 - 18:05:36
Uploader   robbyrs
Votazione (Voti: 2)


Condividi questo bittorrent:


html/blog:


bbcode/forum:




Aggiungi Commento