Loading...
 * Dettagli Torrent   globale  | Commenti (0) 


- La donna elettrica - Kona fer í strío (2018).720p.H264.italian.Ukr.Ac3-5.1-MIRCrew -


Download via torrent:
Categoria bittorrent BDRip
Descrizione
visitate mircrew-releases


La donna elettrica - Kona fer í strío 2018.720p.H264.italian.Ukr.Ac3-5.1-MIRCrew


NO FOUND ONLY ORIGINAL RELEASE

My release is always in double track audio italian and Original audio
for select it use VLC or dvd player home
not use wmp

La donna elettrica - Kona fer í strío 2018

Quality MIRCrew on HD 720p da  1,6 gb











GENERE: Commedia
ANNO: 2018
REGIA: Benedikt Erlingsson
PAESE: Islanda, Francia, Ucraina
DURATA: 101 Min



Halldóra Geirharðsdóttir, Jóhann Sigurðarson, David Thor Jonsson, Magnús Trygvason Eliasen, Omar Gudjonsson, Jörundur Ragnarsson



La donna elettrica, il film diretto da Benedikt Erlingsson racconta la storia di Halla (Halldóra Geirharðsdóttir), che sembra una donna come le altre, ma dietro la routine di ogni giorno nasconde una vita segreta: armata di tutto punto compie spericolate azioni di sabotaggio contro le multinazionali che stanno devastando la sua terra,



Halla becomes a determined environmental activist, but this threatens a long-held hope of hers.

 






General
Unique ID                                : 76785035451037271994744738740817673912 (0x39C442892C5EF4D053E7A50CBB90BEB
Complete name                            : La donna elettrica - Kona fer í strío.720p.ita.ukr-MIRCrewLa donna elettrica - Kona fer í strío.720p.ita.ukr-MIRCrew.mkv
Format                                   : Matroska
Format version                           : Version 2
File size                                : 1.66 GiB
Duration                                 : 1h 36mn
Overall bit rate                         : 2 466 Kbps
Encoded date                             : UTC 2019-04-30T16:32:30Z
Writing application                      : HandBrake 0.10.5 2016021100
Writing library                          : Lavf55.12.0

Video
ID                                       : 1
Format                                   : AVC
Format/Info                              : Advanced Video Codec
Format profile                           : [email protected]
Format settings, CABAC                   : Yes
Format settings, ReFrames                : 4 frames
Codec ID                                 : V_MPEG4/ISO/AVC
Duration                                 : 1h 36mn
Bit rate                                 : 1 900 Kbps
Width                                    : 1 280 pixels
Height                                   : 528 pixels
Display aspect ratio                     : 2.40:1
Frame rate                               : 25.000 fps
Color space                              : YUV
Chroma subsampling                       : 4:2:0
Bit depth                                : 8 bits
Scan type                                : Progressive
Bits/(Pixel*Frame)                       : 0.112
Stream size                              : 1.24 GiB (75%)
Writing library                          : x264 core 142 r2479 dd79a61
Encoding settings                        : cabac=1 / ref=1 / deblock=1:0:0 / analyse=0x1:0x111 / me=hex / subme=2 / psy=1 / psy_rd=1.00:0.00 / mixed_ref=0 / me_range=16 / chroma_me=1 / trellis=0 / 8x8dct=0 / cqm=0 / deadzone=21,11 / fast_pskip=1 / chroma_qp_offset=0 / threads=9 / lookahead_threads=3 / sliced_threads=0 / nr=0 / decimate=1 / interlaced=0 / bluray_compat=0 / constrained_intra=0 / bframes=3 / b_pyramid=2 / b_adapt=1 / b_bias=0 / direct=1 / weightb=1 / open_gop=0 / weightp=1 / keyint=250 / keyint_min=25 / scenecut=40 / intra_refresh=0 / rc_lookahead=10 / rc=abr / mbtree=1 / bitrate=1900 / ratetol=1.0 / qcomp=0.60 / qpmin=0 / qpmax=69 / qpstep=4 / vbv_maxrate=20000 / vbv_bufsize=25000 / nal_hrd=none / filler=0 / ip_ratio=1.40 / aq=1:1.00
Default                                  : Yes
Forced                                   : No
Color primaries                          : BT.709-5, BT.1361, IEC 61966-2-4, SMPTE RP177
Transfer characteristics                 : BT.709-5, BT.1361
Matrix coefficients                      : BT.709-5, BT.1361, IEC 61966-2-4 709, SMPTE RP177

Audio #1
ID                                       : 2
Format                                   : AC-3
Format/Info                              : Audio Coding 3
Mode extension                           : CM (complete main)
Codec ID                                 : A_AC3
Duration                                 : 1h 36mn
Bit rate mode                            : Constant
Bit rate                                 : 384 Kbps
Channel(s)                               : 6 channels
Channel positions                        : Front: L C R, Side: L R, LFE
Sampling rate                            : 48.0 KHz
Bit depth                                : 16 bits
Compression mode                         : Lossy
Delay relative to video                  : 1mn 5s
Stream size                              : 265 MiB (16%)
Title                                    : Ita Ac3 5.1
Language                                 : Italian
Default                                  : Yes
Forced                                   : No

Audio #2
ID                                       : 3
Format                                   : AC-3
Format/Info                              : Audio Coding 3
Mode extension                           : CM (complete main)
Codec ID                                 : A_AC3
Duration                                 : 1h 36mn
Bit rate mode                            : Constant
Bit rate                                 : 192 Kbps
Channel(s)                               : 2 channels
Channel positions                        : Front: L R
Sampling rate                            : 48.0 KHz
Bit depth                                : 16 bits
Compression mode                         : Lossy
Delay relative to video                  : 1mn 5s
Stream size                              : 133 MiB (8%)
Title                                    : Stereo
Language                                 : Ukrainian
Default                                  : No
Forced                                   : No



Info: Per scaricare devi usare un client come uTorrent o Transmission
AnnounceURL
udp://tracker.coppersurfer.tk:6969/announce
Hash 86d3b443112ca3e4676928be51dd35c80dbda8f2
Peers seeds: 49 , leech: 7
Size 1.66 GB
Completato 1348x
Aggiunto 04.05.19 - 17:05:00
Uploader   robbyrs
Votazione (Voti: 0)


Condividi questo bittorrent:


html/blog:


bbcode/forum:




Aggiungi Commento