Loading...
 * Dettagli Torrent   globale  | Commenti (2) 


- Dragon Ball GT (1996 ITA) [COMPLETA] [1080p] [HeroToss] -


Download via torrent:
Categoria bittorrent Anime
Descrizione


[size=18pt]DRAGON BALL GT[/size]





Titolo originale: Doragon B?ru J? T?
Anno: 1996
Genere: Azione Combattimento
Numero episodi: 64
Autore: Izumi T?d?, Akira Toriyama
Regia: Osamu Kasai
Char. design: Katsuyoshi Nakatsuru, Akira Toriyama
Dir. artistica: Tadanao Tsuji, Takashi Yoshiike
Musiche: Akihito Tokunaga
Studio: Toei Animation, Bird Studio
1ª TV: 7 febbraio 1996 – 19 novembre 1997
1ª TV it.: 5 aprile – 18 dicembre 2001
Durata ep.: 23 min.



La storia si svolge cinque anni dopo gli avvenimenti di Dragon Ball Z, e si conclude a 40 anni dal primo incontro tra Goku e Bulma, con Goku ormai cinquantaduenne. La storia inizia con il ritorno di Goku dall'allenamento con Ub, reincarnazione del Majin Bu originale, con cui il saiyan era partito alla fine di Dragon Ball Z. Tornato bambino a causa di un desiderio mal formulato da parte di Pilaf a Red Shenron, Goku vive nuove avventure in compagnia della nipote Pan e di Trunks e affronta nuovi nemici per garantire la pace sulla Terra.


[spoiler]

[/spoiler]


[spoiler]
General
Unique ID                      : 144360189917582406899943156758692444612 (0x6C9AC2E18A49399E73D8582F654B39C4)
Complete name                  : Zragon Ball GT [64#1080p]DBGT_01 - Esistono altre sette sfere del drago!.mkv
Format                         : Matroska
Format version                 : Version 4 / Version 2
File size                      : 384 MiB
Duration                       : 24 min 38 s
Overall bit rate               : 2 181 kb/s
Movie name                     : Mux By »HeroToss«
Encoded date                   : UTC 2018-04-01 15:36:58
Writing application            : mkvmerge v21.0.0 ('Tardigrades Will Inherit The Earth&#39 64-bit
Writing library                : libebml v1.3.5 + libmatroska v1.4.8

Video
ID                             : 1
Format                         : HEVC
Format/Info                    : High Efficiency Video Coding
Format profile                 : [email protected]@Main
Codec ID                       : V_MPEGH/ISO/HEVC
Duration                       : 24 min 38 s
Bit rate                       : 1 982 kb/s
Width                          : 1 440 pixels
Height                         : 1 080 pixels
Display aspect ratio           : 4:3
Frame rate mode                : Constant
Frame rate                     : 23.976 (24000/1001) FPS
Color space                    : YUV
Chroma subsampling             : 4:2:0
Bit depth                      : 8 bits
Bits/(Pixel*Frame)             : 0.053
Stream size                    : 349 MiB (91%)
Title                          : proyectosDB
Writing library                : x265 2.2+2-998d4520d1cf:[Windows][GCC 6.2.0][64 bit] 8bit+10bit+12bit
Encoding settings              : cpuid=1049087 / frame-threads=2 / numa-pools=4 / wpp / no-pmode / no-pme / no-psnr / no-ssim / log-level=2 / input-csp=1 / input-res=1440x1080 / interlace=0 / total-frames=35448 / level-idc=0 / high-tier=1 / uhd-bd=0 / ref=3 / no-allow-non-conformance / no-repeat-headers / annexb / no-aud / no-hrd / info / hash=0 / no-temporal-layers / open-gop / min-keyint=23 / keyint=250 / bframes=4 / b-adapt=2 / b-pyramid / bframe-bias=0 / rc-lookahead=20 / lookahead-slices=6 / scenecut=40 / no-intra-refresh / ctu=64 / min-cu-size=8 / no-rect / no-amp / max-tu-size=32 / tu-inter-depth=1 / tu-intra-depth=1 / limit-tu=0 / rdoq-level=0 / signhide / no-tskip / nr-intra=0 / nr-inter=0 / no-constrained-intra / strong-intra-smoothing / max-merge=2 / limit-refs=3 / no-limit-modes / me=1 / subme=2 / merange=57 / temporal-mvp / weightp / no-weightb / no-analyze-src-pics / deblock=0:0 / sao / no-sao-non-deblock / rd=3 / no-early-skip / rskip / no-fast-intra / no-tskip-fast / no-cu-lossless / no-b-intra / rdpenalty=0 / psy-rd=2.00 / psy-rdoq=0.00 / no-rd-refine / analysis-mode=0 / no-lossless / cbqpoffs=0 / crqpoffs=0 / rc=abr / bitrate=1982 / qcomp=0.60 / qpstep=4 / stats-write=0 / stats-read=2 / cplxblur=20.0 / qblur=0.5 / ipratio=1.40 / pbratio=1.30 / aq-mode=1 / aq-strength=1.00 / cutree / zone-count=0 / no-strict-cbr / qg-size=32 / no-rc-grain / qpmax=69 / qpmin=0 / sar=1 / overscan=0 / videoformat=5 / range=0 / colorprim=2 / transfer=2 / colormatrix=2 / chromaloc=0 / display-window=0 / max-cll=0,0 / min-luma=0 / max-luma=255 / log2-max-poc-lsb=8 / vui-timing-info / vui-hrd-info / slices=1 / opt-qp-pps / opt-ref-list-length-pps / no-multi-pass-opt-rps / scenecut-bias=0.05
Language                       : Japanese
Default                        : Yes
Forced                         : No

Audio
ID                             : 2
Format                         : AAC
Format/Info                    : Advanced Audio Codec
Format profile                 : LC
Codec ID                       : A_AAC
Duration                       : 24 min 38 s
Bit rate                       : 196 kb/s
Channel(s)                     : 2 channels
Channel positions              : Front: L R
Sampling rate                  : 48.0 kHz
Frame rate                     : 46.875 FPS (1024 SPF)
Compression mode               : Lossy
Stream size                    : 34.5 MiB (9%)
Language                       : Italian
Default                        : Yes
Forced                         : No
[/spoiler]




[size=14pt]24/7 - 1Mbps/100kbps
Fino al rapporto 1.5[/size]



[size=14pt][Ringraziamenti]
Video: proyectosDB
Audio: ---
Mux/Sync: HeroToss[/size]

This content is hidden and cannot be quoted.
Info: Per scaricare devi usare un client come uTorrent o Transmission
AnnounceURL
http://tracker.tntvillage.scambioetico.org:2710/announce
Hash 6ea72a3d073307a7dd5b48305ab288e9fe643125
Peers seeds: 11 , leech: 3
Size 24.19 GB
Completato 737x
Aggiunto 13.04.19 - 22:04:26
Uploader   stress
Votazione (Voti: 1)


Condividi questo bittorrent:


html/blog:


bbcode/forum:




Aggiungi Commento
Ultimi commenti
  
scarico subito ma per caso la prima saga invece? non si puè avere in 1080?
14/04 19.46
  
grandeeeee
sei mitico!! serviva proprio in 1080!
14/04 19.45
Tutti commenti (2)