Loading...
 * Dettagli Torrent   globale  | Commenti (3) 


- Triple Frontier (2019).720p.H264.italian.english.Ac3-5.1.multisub-MIRCrew -


Download via torrent:
Categoria bittorrent BDRip
Descrizione
venite a trovarci su mircrew-releases

Triple Frontier (2019).720p.H264.italian.english.Ac3-5.1.multisub-MIRCrew


NO FOUND ONLY ORIGINAL RELEASE

My release is always in double track audio italian and Original audio
for select it use VLC or dvd player home
not use wmp

Triple Frontier

(2019)

Quality MIRCrew on HD 720p da  2,3 gb











Paese di produzione Stati Uniti d'America
Anno 2019
Durata 125 min
Rapporto 2,11 : 1
Genere thriller, azione, avventura
Regia J. C. Chandor
Soggetto Mark Boal
Sceneggiatura Mark Boal, J. C. Chandor



   Ben Affleck: Tom "Redfly" Davis
   Oscar Isaac: Santiago "Pope" Garcia
   Charlie Hunnam: William "Ironhead" Miller
   Garrett Hedlund: Ben Miller
   Pedro Pascal: Francisco "Catfish" Morales
   Adria Arjona: Yovanna
   Sheila Vand: Lauren Yates



5 ex membri delle forze speciali derubano un narcotrafficante, scatenando una serie di conseguenze inattese e mettendo alla prova i rapporti di lealtà nella squadra.



5 ex special forces soldiers plan to rob a cocaine cartel boss of all his cash $$$ at his house in the Amazon jungle area of the triple borders - Peru, Brazil and Colombia. Problems arise after the plan's initiated. .





General
Unique ID                                : 308370916411570320125222824902980589032 (0xE7FE14043A6D3B705CF077E28B18D5E
Complete name                            : Triple Frontier (2019).720p.H264.ita.eng.multisub-MIRCrewTriple Frontier (2019).720p.H264.ita.eng.multisub-MIRCrew.mkv
Format                                   : Matroska
Format version                           : Version 4 / Version 2
File size                                : 2.34 GiB
Duration                                 : 2h 5mn
Overall bit rate                         : 2 656 Kbps
Movie name                               : MIRCrew
Encoded date                             : UTC 2019-03-15T17:52:56Z
Writing application                      : mkvmerge v26.0.0 ('In The Game&#39 64-bit
Writing library                          : Lavf55.12.0

Video
ID                                       : 1
Format                                   : AVC
Format/Info                              : Advanced Video Codec
Format profile                           : [email protected]
Format settings, CABAC                   : Yes
Format settings, ReFrames                : 4 frames
Codec ID                                 : V_MPEG4/ISO/AVC
Duration                                 : 2h 5mn
Bit rate                                 : 1 900 Kbps
Width                                    : 1 280 pixels
Height                                   : 608 pixels
Display aspect ratio                     : 2.2:1
Frame rate                               : 24.000 fps
Color space                              : YUV
Chroma subsampling                       : 4:2:0
Bit depth                                : 8 bits
Scan type                                : Progressive
Bits/(Pixel*Frame)                       : 0.102
Stream size                              : 1.61 GiB (69%)
Title                                    : MIRCrew
Writing library                          : x264 core 142 r2479 dd79a61
Encoding settings                        : cabac=1 / ref=1 / deblock=1:-1:-1 / analyse=0x1:0x111 / me=hex / subme=2 / psy=1 / psy_rd=1.00:0.15 / mixed_ref=0 / me_range=16 / chroma_me=1 / trellis=0 / 8x8dct=0 / cqm=0 / deadzone=21,11 / fast_pskip=1 / chroma_qp_offset=0 / threads=6 / lookahead_threads=2 / sliced_threads=0 / nr=0 / decimate=1 / interlaced=0 / bluray_compat=0 / constrained_intra=0 / bframes=3 / b_pyramid=2 / b_adapt=1 / b_bias=0 / direct=1 / weightb=1 / open_gop=0 / weightp=1 / keyint=240 / keyint_min=24 / scenecut=40 / intra_refresh=0 / rc_lookahead=10 / rc=abr / mbtree=1 / bitrate=1900 / ratetol=1.0 / qcomp=0.60 / qpmin=0 / qpmax=69 / qpstep=4 / vbv_maxrate=50000 / vbv_bufsize=62500 / nal_hrd=none / filler=0 / ip_ratio=1.40 / aq=1:1.00
Language                                 : Italian
Default                                  : Yes
Forced                                   : No
DURATION                                 : 02:05:52.042000000
NUMBER_OF_FRAMES                         : 181249
NUMBER_OF_BYTES                          : 1780345164
_STATISTICS_WRITING_APP                  : mkvmerge v26.0.0 ('In The Game&#39 64-bit
_STATISTICS_WRITING_DATE_UTC             : 2019-03-16 16:16:38
_STATISTICS_TAGS                         : BPS DURATION NUMBER_OF_FRAMES NUMBER_OF_BYTES
Color primaries                          : BT.709-5, BT.1361, IEC 61966-2-4, SMPTE RP177
Transfer characteristics                 : BT.709-5, BT.1361
Matrix coefficients                      : BT.709-5, BT.1361, IEC 61966-2-4 709, SMPTE RP177

Audio #1
ID                                       : 2
Format                                   : AC-3
Format/Info                              : Audio Coding 3
Mode extension                           : CM (complete main)
Codec ID                                 : A_AC3
Duration                                 : 2h 5mn
Bit rate mode                            : Constant
Bit rate                                 : 384 Kbps
Channel(s)                               : 6 channels
Channel positions                        : Front: L C R, Side: L R, LFE
Sampling rate                            : 48.0 KHz
Bit depth                                : 16 bits
Compression mode                         : Lossy
Delay relative to video                  : -5ms
Stream size                              : 346 MiB (14%)
Title                                    : Ita Ac3 5.1
Language                                 : Italian
Default                                  : Yes
Forced                                   : No
DURATION                                 : 02:05:52.448000000
NUMBER_OF_FRAMES                         : 236014
NUMBER_OF_BYTES                          : 362517504
_STATISTICS_WRITING_APP                  : mkvmerge v26.0.0 ('In The Game&#39 64-bit
_STATISTICS_WRITING_DATE_UTC             : 2019-03-16 16:16:38
_STATISTICS_TAGS                         : BPS DURATION NUMBER_OF_FRAMES NUMBER_OF_BYTES

Audio #2
ID                                       : 3
Format                                   : AC-3
Format/Info                              : Audio Coding 3
Mode extension                           : CM (complete main)
Codec ID                                 : A_AC3
Duration                                 : 2h 5mn
Bit rate mode                            : Constant
Bit rate                                 : 384 Kbps
Channel(s)                               : 6 channels
Channel positions                        : Front: L C R, Side: L R, LFE
Sampling rate                            : 48.0 KHz
Bit depth                                : 16 bits
Compression mode                         : Lossy
Delay relative to video                  : -5ms
Stream size                              : 346 MiB (14%)
Title                                    : Eng Ac3 5.1
Language                                 : English
Default                                  : No
Forced                                   : No
DURATION                                 : 02:05:52.448000000
NUMBER_OF_FRAMES                         : 236014
NUMBER_OF_BYTES                          : 362517504
_STATISTICS_WRITING_APP                  : mkvmerge v26.0.0 ('In The Game&#39 64-bit
_STATISTICS_WRITING_DATE_UTC             : 2019-03-16 16:16:38
_STATISTICS_TAGS                         : BPS DURATION NUMBER_OF_FRAMES NUMBER_OF_BYTES

Info: Per scaricare devi usare un client come uTorrent o Transmission
AnnounceURL
udp://tracker.coppersurfer.tk:6969/announce
Hash 7cf24e3dedd483bcf23fbc5a342df4d7c83f51e5
Peers seeds: 66 , leech: 276
Size 2.34 GB
Completato 101x
Aggiunto 17.03.19 - 12:03:49
Uploader   robbyrs
Votazione (Voti: 5)


Condividi questo bittorrent:


html/blog:


bbcode/forum:




Aggiungi Commento
Ultimi commenti
 jackal98jackal98   
Grazie
15/05 18.26
 nikkirinikkiri   
Ottimo,grazie mille
19/03 16.51
  
ottimo:
A: 10
V: 10
18/03 16.37
Tutti commenti (3)