Loading...
 * Dettagli Torrent   globale  | Commenti (0) 


- Lorribile verità (The Awful Truth 1937) - BDmux 720p x264 - Ita Eng AC3 - Multisub - Orgazmo -


Download via torrent:
Categoria bittorrent BDRip
Descrizione
L'orribile verità (1937)
(Criterion Collection)






Titolo originale » The Awful Truth
Nazionalità » USA
Anno » 1937
Durata » 91'
Genere » Commedia, Romantico
Regia » Leo McCarey

Cast:
Irene Dunne, Cary Grant, Ralph Bellamy, Alexander D'Arcy,
Cecil Cunningham, Molly Lamont, Esther Dale, Joyce Compton,
Robert Allen, Robert Warwick, Mary Forbes.


Trama

Jerry e Lucy Warriner sono una coppia appartenente all'alta società newyorkese e conducono un'intensa vita sociale. Il loro affiatamento è però minato dai dubbi sulle presunte reciproche infedeltà (lui fa viaggi inesistenti, lei dimostra un'eccessiva familiarità con il suo maestro di canto), tanto che decidono consensualmente di divorziare. In attesa che il divorzio diventi definitivo, i due però non riescono ad evitare di frequentarsi, tentando con ogni mezzo di compromettere le rispettive nuove relazioni sentimentali: lui approfitta del fatto che l'amato cagnolino Mr. Smith, che li ha fatti incontrare, sia stato affidato a lei e il tribunale gli abbia concesso di andare a trovarlo periodicamente, per allontanare con la propria presenza Dan Leeson, rozzo petroliere dell'Oklahoma, con mamma al seguito; lei scandalizza la famiglia di Barbara Vance, raffinata ereditiera, impersonando l'eccentrica sorella (immaginaria) di Jerry.


Screenshoots




Report del file

General
Unique ID: 45820827224162283861811845328302222921 (0x2278C533DF59013388AADE3D0E37AE49)
Complete name: L'orribile verità (The Awful Truth 1937) Criterion - BDmux 720p x264 - Ita Eng AC3 - Sub ITA ENG ESP - Orgazmo.mkv
Format: Matroska
Format version: Version 4 / Version 2
File size: 5.33 GiB
Duration: 1h 31mn
Overall bit rate: 8 384 Kbps
Movie name: L'orribile verità (Leo McCarey, 1937) - Orgazmo
Encoded date: UTC 2018-09-06 07:58:19
Writing application: mkvmerge v26.0.0 ('In The Game&#39 64-bit
Writing library: libebml v1.3.6 + libmatroska v1.4.9
DURATION: 01:31:02.432000000
NUMBER_OF_FRAMES: 170701
NUMBER_OF_BYTES: 131098368
_STATISTICS_WRITING_APP: mkvmerge v26.0.0 ('In The Game&#39 64-bit
_STATISTICS_WRITING_DATE_UTC: 2018-09-06 07:58:19
_STATISTICS_TAGS: BPS DURATION NUMBER_OF_FRAMES NUMBER_OF_BYTES

Video
ID: 1
Format: AVC
Format/Info: Advanced Video Codec
Format profile: [email protected]
Format settings, CABAC: Yes
Format settings, ReFrames: 5 frames
Codec ID: V_MPEG4/ISO/AVC
Duration: 1h 31mn
Bit rate: 7 999 Kbps
Width: 992 pixels
Height: 720 pixels
Display aspect ratio: 1.378
Frame rate mode: Constant
Frame rate: 23.976 fps
Color space: YUV
Chroma subsampling: 4:2:0
Bit depth: 8 bits
Scan type: Progressive
Bits/(Pixel*Frame): 0.467
Stream size: 4.98 GiB (93%)
Title: L'orribile verità (Leo McCarey, 1937)
Writing library: x264 core 155 r2901 7d0ff22
Encoding settings: cabac=1 / ref=5 / deblock=1:-3:-3 / analyse=0x3:0x113 / me=umh / subme=8 / psy=1 / psy_rd=1.15:0.00 / mixed_ref=1 / me_range=24 / chroma_me=1 / trellis=2 / 8x8dct=1 / cqm=0 / deadzone=21,11 / fast_pskip=1 / chroma_qp_offset=-2 / threads=22 / lookahead_threads=3 / sliced_threads=0 / nr=0 / decimate=1 / interlaced=0 / bluray_compat=0 / constrained_intra=0 / bframes=3 / b_pyramid=2 / b_adapt=2 / b_bias=0 / direct=3 / weightb=1 / open_gop=0 / weightp=2 / keyint=240 / keyint_min=24 / scenecut=40 / intra_refresh=0 / rc_lookahead=50 / rc=2pass / mbtree=1 / bitrate=7999 / ratetol=1.0 / qcomp=0.60 / qpmin=0 / qpmax=69 / qpstep=4 / cplxblur=20.0 / qblur=0.5 / ip_ratio=1.40 / aq=3:0.70
Language: Italian
Default: Yes
Forced: No
DURATION: 01:31:02.457000000
NUMBER_OF_FRAMES: 130968
NUMBER_OF_BYTES: 5460868013
_STATISTICS_WRITING_APP: mkvmerge v26.0.0 ('In The Game&#39 64-bit
_STATISTICS_WRITING_DATE_UTC: 2018-09-06 07:58:19
_STATISTICS_TAGS: BPS DURATION NUMBER_OF_FRAMES NUMBER_OF_BYTES

Audio #1
ID: 2
Format: AC-3
Format/Info: Audio Coding 3
Mode extension: CM (complete main)
Format settings, Endianness: Big
Codec ID: A_AC3
Duration: 1h 31mn
Bit rate mode: Constant
Bit rate: 192 Kbps
Channel count: 1 channel
Channel positions: Front: C
Sampling rate: 48.0 KHz
Bit depth: 16 bits
Compression mode: Lossy
Stream size: 125 MiB (2%)
Title: Italiano AC3 1.0 192Kbps
Language: Italian
Default: Yes
Forced: No

Audio #2
ID: 3
Format: AC-3
Format/Info: Audio Coding 3
Mode extension: CM (complete main)
Format settings, Endianness: Big
Codec ID: A_AC3
Duration: 1h 31mn
Bit rate mode: Constant
Bit rate: 192 Kbps
Channel count: 1 channel
Channel positions: Front: C
Sampling rate: 48.0 KHz
Bit depth: 16 bits
Compression mode: Lossy
Stream size: 125 MiB (2%)
Title: English AC3 1.0 192Kbps
Language: English
Default: No
Forced: No

Text #1
ID: 4
Format: UTF-8
Codec ID: S_TEXT/UTF8
Codec ID/Info: UTF-8 Plain Text
Title: Italiano (Forced)
Language: Italian
Default: Yes
Forced: Yes

Text #2
ID: 5
Format: UTF-8
Codec ID: S_TEXT/UTF8
Codec ID/Info: UTF-8 Plain Text
Title: Italiano
Language: Italian
Default: No
Forced: No

Text #3
ID: 6
Format: UTF-8
Codec ID: S_TEXT/UTF8
Codec ID/Info: UTF-8 Plain Text
Title: English
Language: English
Default: No
Forced: No

Text #4
ID: 7
Format: UTF-8
Codec ID: S_TEXT/UTF8
Codec ID/Info: UTF-8 Plain Text
Title: Español
Language: Spanish
Default: No
Forced: No

Menu
19 Chapters





Info: Per scaricare devi usare un client come uTorrent o Transmission
AnnounceURL
udp://tracker.coppersurfer.tk:6969/announce
Hash 0ddf8ed7bcf75898d6b377a22bee7e00423eaaca
Peers seeds: 1 , leech: 0
Size 5.33 GB
Completato 0x
Aggiunto 14.03.19 - 19:03:38
Uploader   Orgazmo
Votazione (Voti: 0)


Condividi questo bittorrent:


html/blog:


bbcode/forum:




Aggiungi Commento