Loading...
 * Dettagli Torrent   globale  | Commenti (0) 


- Shrek 2 (2004).720p.H264.italian.english.Ac3-5.1-sub.eng-MIRCrew -


Download via torrent:
Categoria bittorrent BDRip
Descrizione
visitate mircrew-releases

Shrek 2 (2004).720p.H264.italian.english.Ac3-5.1-sub.eng-MIRCrew




NO FOUND ONLY ORIGINAL RELEASE

My release is always in double track audio italian and Original audio
for select it use VLC or dvd player home
not use wmp

Shrek 2

(2004)


Quality MIRCrew on HD 720p da  1,7 gb









Titolo originale Shrek 2
Paese di produzione Stati Uniti d'America
Anno 2004
Durata 92 min
Rapporto 1.85:1
Genere animazione, commedia, avventura
Regia Andrew Adamson, Kelly Asbury, Conrad Vernon
Soggetto William Steig, Andrew Adamson
Sceneggiatura Andrew Adamson, Joe Stillman, J. David Stem, David N. Weiss



*******************************



Il Principe Azzurro è un aitante giovane che sta compiendo un viaggio per salvare e trasformare in umana la principessa Fiona — costretta a trasformarsi in un'orchessa tra il tramonto e l'alba a causa di un incantesimo — la quale da bambina era stata rinchiusa in una torre proprio perché la Fata Madrina della principessa aveva convinto i suoi genitori a farlo



Princess Fiona's parents invite her and Shrek to dinner to celebrate her marriage. If only they knew the newlyweds were both ogres.







General

Complete name                            : Shrek 2 (2004).720p.h264.ita.eng.sub.eng-MIRCrewShrek 2 (2004).720p.h264.ita.eng.sub.eng-MIRCrew.mkv
Format                                   : Matroska
Format version                           : Version 4 / Version 2
File size                                : 1.72 GiB
Duration                                 : 1h 32mn
Overall bit rate                         : 2 657 Kbps
Movie name                               : MIRCrew
Encoded date                             : UTC 2019-01-23T12:47:41Z
Writing application                      : mkvmerge v26.0.0 ('In The Game&#39 64-bit
Writing library                          : Lavf55.12.0

Video
ID                                       : 1
Format                                   : AVC
Format/Info                              : Advanced Video Codec
Format profile                           : [email protected]
Format settings, CABAC                   : Yes
Format settings, ReFrames                : 4 frames
Codec ID                                 : V_MPEG4/ISO/AVC
Duration                                 : 1h 32mn
Bit rate                                 : 1 900 Kbps
Width                                    : 1 280 pixels
Height                                   : 720 pixels
Display aspect ratio                     : 16:9
Frame rate                               : 23.976 fps
Color space                              : YUV
Chroma subsampling                       : 4:2:0
Bit depth                                : 8 bits
Scan type                                : Progressive
Bits/(Pixel*Frame)                       : 0.086
Stream size                              : 1.19 GiB (69%)
Title                                    : MIRCrew
Writing library                          : x264 core 142 r2479 dd79a61
Encoding settings                        : cabac=1 / ref=1 / deblock=1:0:0 / analyse=0x1:0x111 / me=hex / subme=2 / psy=1 / psy_rd=1.00:0.00 / mixed_ref=0 / me_range=16 / chroma_me=1 / trellis=0 / 8x8dct=0 / cqm=0 / deadzone=21,11 / fast_pskip=1 / chroma_qp_offset=0 / threads=6 / lookahead_threads=2 / sliced_threads=0 / nr=0 / decimate=1 / interlaced=0 / bluray_compat=0 / constrained_intra=0 / bframes=3 / b_pyramid=2 / b_adapt=1 / b_bias=0 / direct=1 / weightb=1 / open_gop=0 / weightp=1 / keyint=240 / keyint_min=24 / scenecut=40 / intra_refresh=0 / rc_lookahead=10 / rc=abr / mbtree=1 / bitrate=1900 / ratetol=1.0 / qcomp=0.60 / qpmin=0 / qpmax=69 / qpstep=4 / vbv_maxrate=50000 / vbv_bufsize=62500 / nal_hrd=none / filler=0 / ip_ratio=1.40 / aq=1:1.00
Language                                 : Italian
Default                                  : Yes
Forced                                   : No
DURATION                                 : 01:32:24.289000000
NUMBER_OF_FRAMES                         : 132930
NUMBER_OF_BYTES                          : 1307994825
_STATISTICS_WRITING_APP                  : mkvmerge v26.0.0 ('In The Game&#39 64-bit
_STATISTICS_WRITING_DATE_UTC             : 2019-01-23 16:05:10
_STATISTICS_TAGS                         : BPS DURATION NUMBER_OF_FRAMES NUMBER_OF_BYTES
Color primaries                          : BT.709-5, BT.1361, IEC 61966-2-4, SMPTE RP177
Transfer characteristics                 : BT.709-5, BT.1361
Matrix coefficients                      : BT.709-5, BT.1361, IEC 61966-2-4 709, SMPTE RP177

Audio #1
ID                                       : 2
Format                                   : AC-3
Format/Info                              : Audio Coding 3
Mode extension                           : CM (complete main)
Codec ID                                 : A_AC3
Duration                                 : 1h 32mn
Bit rate mode                            : Constant
Bit rate                                 : 384 Kbps
Channel(s)                               : 6 channels
Channel positions                        : Front: L C R, Side: L R, LFE
Sampling rate                            : 48.0 KHz
Bit depth                                : 16 bits
Compression mode                         : Lossy
Delay relative to video                  : -5ms
Stream size                              : 254 MiB (14%)
Title                                    : Ita Ac3 5.1
Language                                 : Italian
Default                                  : Yes
Forced                                   : No
DURATION                                 : 01:32:23.392000000
NUMBER_OF_FRAMES                         : 173231
NUMBER_OF_BYTES                          : 266082816
_STATISTICS_WRITING_APP                  : mkvmerge v26.0.0 ('In The Game&#39 64-bit
_STATISTICS_WRITING_DATE_UTC             : 2019-01-23 16:05:10
_STATISTICS_TAGS                         : BPS DURATION NUMBER_OF_FRAMES NUMBER_OF_BYTES

Audio #2
ID                                       : 3
Format                                   : AC-3
Format/Info                              : Audio Coding 3
Mode extension                           : CM (complete main)
Codec ID                                 : A_AC3
Duration                                 : 1h 32mn
Bit rate mode                            : Constant
Bit rate                                 : 384 Kbps
Channel(s)                               : 6 channels
Channel positions                        : Front: L C R, Side: L R, LFE
Sampling rate                            : 48.0 KHz
Bit depth                                : 16 bits
Compression mode                         : Lossy
Delay relative to video                  : -5ms
Stream size                              : 254 MiB (14%)
Title                                    : Eng Ac3 5.1
Language                                 : English
Default                                  : No
Forced                                   : No
DURATION                                 : 01:32:23.328000000
NUMBER_OF_FRAMES                         : 173229
NUMBER_OF_BYTES                          : 266079744
_STATISTICS_WRITING_APP                  : mkvmerge v26.0.0 ('In The Game&#39 64-bit
_STATISTICS_WRITING_DATE_UTC             : 2019-01-23 16:05:10
_STATISTICS_TAGS                         : BPS DURATION NUMBER_OF_FRAMES NUMBER_OF_BYTES

Menu
00:00:00.000                             : :00:00:00.000
00:02:32.902                             : :00:02:32.819
00:08:42.105                             : :00:08:42.021
00:11:13.172                             : :00:11:13.089
00:19:09.606                             : :00:19:09.482
00:27:13.632                             : :00:27:13.507
00:30:25.407                             : :00:30:25.282
00:32:38.831                             : :00:32:38.665
00:40:46.444                             : :00:40:46.319
00:48:07.968                             : :00:48:07.885
00:52:30.856                             : :00:52:30.731
00:56:22.545                             : :00:56:22.462
01:00:45.516                             : :01:00:45.350
01:03:37.855                             : :01:03:37.772
01:05:00.480                             : :01:05:00.271
01:07:23.664                             : :01:07:23.581
01:10:50.871                             : :01:10:50.788
01:14:20.497                             : :01:14:20.414
01:18:42.426                             : :01:18:42.301
01:22:09.341                             : :01:22:09.216



Info: Per scaricare devi usare un client come uTorrent o Transmission
AnnounceURL
udp://tracker.coppersurfer.tk:6969/announce
Hash 0baf33cb0bde98095c5dedf46c1e804c9ff4e54d
Peers seeds: 14 , leech: 0
Size 1.72 GB
Completato 182x
Aggiunto 09.03.19 - 17:03:30
Uploader   robbyrs
Votazione (Voti: 0)


Condividi questo bittorrent:


html/blog:


bbcode/forum:




Aggiungi Commento