Loading...
 * Dettagli Torrent   globale  | Commenti (0) 


- Shriek hai impegni per venerdì 17 (2000).720p.H264.italian.english.Ac3-MIRCrew -


Download via torrent:
Categoria bittorrent BDRip
Descrizione
visitate mircrew-releases

Shriek If You Know What I Did Last Friday the Thirteenth - Shriek Hai Impegni Per Venerdì 17 (2000).720p.H264.italian.english.Ac3-MIRCrew


NO FOUND ONLY ORIGINAL RELEASE

My release is always in double track audio italian and Original audio
for select it use VLC or dvd player home
not use wmp

Shriek Hai Impegni Per Venerdì 17

Shriek If You Know What I Did Last Friday the Thirteenth

(2000)


Quality MIRCrew on HD 720p da  1,4 gb










Titolo originale Shriek If You Know What I Did Last Friday the Thirteenth
Lingua originale inglese
Paese di produzione Stati Uniti d'America
Anno 2000
Durata 86 min
Genere commedia
Regia John Blanchard
Sceneggiatura Sue Bailey e Joe Nelms
Montaggio Richard LaBie
Musiche Tyler Bates



   Majandra Delfino: Martina
   Harley Cross: Dawson
   Chris Palermo: Killer
   Julie Benz: Barbara
   Simon Rex: Slab
   Danny Strong: Boso
   Tiffani Thiessen: Calamy Jeans
   Tom Arnold: Frollo Sospettini; Tosto Sospettini
   Alanna Ubach: Mrs. Grossberg
   Coolio: Preside del liceo
   Aimee Graham: Susy
   Kim Greist: Mrs. Peacock
   Mink Stole: Madame La Tourneau
   Rose Marie: Mrs. Tingle
   Steven Anthony Lawrence: Chuckie
   Martin Diggs: Cameraman



Susy, sola in casa, riceve una telefonata minacciosa da parte di un serial killer: l'uomo, armato di un coltello, la raggiunge, vestito con un cappuccio nero e una maschera da hockey, ma si dimostra maldestro come carnefice, fino ad essere addirittura deriso.......................



Another spoof of the Scream/I Know What You Did Last Summer horror gene involving a group of popular high school students stalked by a bumbling masked killer while a dogged reporter named Hagitha Utslay covers the story and of the plight of the prime suspect and transfer student Dawson

 





General
Unique ID                                : 209942194327158831869911114833830508737 (0x9DF16557604A03ACABE8A21849E278C1)
Complete name                            : Shriek - Hai Impegni Per Venerdì 17 (2000)720p.ita.eng.sub.eng-MIRCrewShriek - Hai Impegni Per Venerdì 17 (2000)720p.ita.eng.sub.eng-MIRCrew.mkv
Format                                   : Matroska
Format version                           : Version 2
File size                                : 1.32 GiB
Duration                                 : 1h 26mn
Overall bit rate                         : 2 184 Kbps
Movie name                               : MIRCrew mux
Encoded date                             : UTC 2019-02-26 21:53:02
Writing application                      : mkvmerge v5.4.0 ('Piper&#39 built on Mar 10 2012 13:34:39
Writing library                          : libebml v1.2.3 + libmatroska v1.3.0

Video
ID                                       : 1
Format                                   : AVC
Format/Info                              : Advanced Video Codec
Format profile                           : [email protected]
Format settings, CABAC                   : Yes
Format settings, ReFrames                : 4 frames
Codec ID                                 : V_MPEG4/ISO/AVC
Duration                                 : 1h 26mn
Bit rate                                 : 1 501 Kbps
Width                                    : 1 024 pixels
Height                                   : 572 pixels
Display aspect ratio                     : 16:9
Frame rate mode                          : Variable
Frame rate                               : 23.976 fps
Color space                              : YUV
Chroma subsampling                       : 4:2:0
Bit depth                                : 8 bits
Scan type                                : Progressive
Bits/(Pixel*Frame)                       : 0.107
Stream size                              : 927 MiB (69%)
Title                                    : MIRCrew
Writing library                          : x264 core 148 r2 a01e339
Encoding settings                        : cabac=1 / ref=4 / deblock=1:0:0 / analyse=0x3:0x113 / me=umh / subme=8 / psy=1 / psy_rd=1.00:0.00 / mixed_ref=1 / me_range=16 / chroma_me=1 / trellis=0 / 8x8dct=1 / cqm=0 / deadzone=21,11 / fast_pskip=1 / chroma_qp_offset=-2 / threads=18 / lookahead_threads=4 / sliced_threads=0 / nr=0 / decimate=1 / interlaced=0 / bluray_compat=0 / constrained_intra=0 / bframes=4 / b_pyramid=2 / b_adapt=2 / b_bias=0 / direct=3 / weightb=1 / open_gop=0 / weightp=2 / keyint=96 / keyint_min=48 / scenecut=40 / intra_refresh=0 / rc_lookahead=40 / rc=crf / mbtree=1 / crf=1.0 / qcomp=0.60 / qpmin=0 / qpmax=69 / qpstep=4 / vbv_maxrate=1800 / vbv_bufsize=1800 / crf_max=0.0 / nal_hrd=none / filler=0 / ip_ratio=1.41 / aq=1:1.00
Language                                 : Italian
Default                                  : Yes
Forced                                   : No
DURATION                                 : 01:26:23.053000000
NUMBER_OF_FRAMES                         : 124269
NUMBER_OF_BYTES                          : 1000254677
_STATISTICS_WRITING_APP                  : no_variable_data
_STATISTICS_WRITING_DATE_UTC             : 1970-01-01 00:00:00
_STATISTICS_TAGS                         : BPS DURATION NUMBER_OF_FRAMES NUMBER_OF_BYTES

Audio #1
ID                                       : 2
Format                                   : AC-3
Format/Info                              : Audio Coding 3
Mode extension                           : CM (complete main)
Codec ID                                 : A_AC3
Duration                                 : 1h 26mn
Bit rate mode                            : Constant
Bit rate                                 : 448 Kbps
Channel(s)                               : 2 channels
Channel positions                        : Front: L R
Sampling rate                            : 48.0 KHz
Bit depth                                : 16 bits
Compression mode                         : Lossy
Delay relative to video                  : 20s 917ms
Stream size                              : 277 MiB (21%)
Title                                    : Ita Ac3
Language                                 : Italian
Default                                  : No
Forced                                   : No

Audio #2
ID                                       : 3
Format                                   : AC-3
Format/Info                              : Audio Coding 3
Mode extension                           : CM (complete main)
Codec ID                                 : A_AC3
Duration                                 : 1h 26mn
Bit rate mode                            : Constant
Bit rate                                 : 192 Kbps
Channel(s)                               : 2 channels
Channel positions                        : Front: L R
Sampling rate                            : 44.1 KHz
Bit depth                                : 16 bits
Compression mode                         : Lossy
Delay relative to video                  : -83ms
Stream size                              : 119 MiB (9%)
Title                                    : Eng Ac3
Language                                 : English
Default                                  : No
Forced                                   : No





Info: Per scaricare devi usare un client come uTorrent o Transmission
AnnounceURL
udp://tracker.coppersurfer.tk:6969/announce
Hash d22b17fc685d4cd98a28685e6890621a59139b3c
Peers seeds: 54 , leech: 23
Size 1.32 GB
Completato 264x
Aggiunto 08.03.19 - 17:03:22
Uploader   robbyrs
Votazione (Voti: 0)


Condividi questo bittorrent:


html/blog:


bbcode/forum:




Aggiungi Commento