Loading...
 * Dettagli Torrent   globale  | Commenti (0) 


- The End? - L inferno fuori - In un giorno la fine (2017).720p.H264.italian.Ac3.sub.eng-MIRCrew -


Download via torrent:
Categoria bittorrent BDRip
Descrizione
visitate mircrew-releases

The End? - L'inferno fuori - In un giorno la fine (2017).720p.H264.italian.Ac3.sub.eng-MIRCrew


NO FOUND ONLY ORIGINAL RELEASE

My release is always in double track audio italian and Original audio
for select it use VLC or dvd player home
not use wmp

ENGLISH SUBTITLE INSIDE

The End - L inferno fuori

In un giorno la fine

(2017)

Quality MIRCrew on HD 720p da  1,5 gb










Titolo originale The End
Lingua originale Italiano
Paese di produzione Italia
Anno 2017
Durata 100 min
Dati tecnici Colore
rapporto: 2.35:1
Genere orrore, thriller
Regia Daniele Misischia
Soggetto Daniele Misischia
Sceneggiatura Cristiano Ciccotti



   Alessandro Roja: Claudio Verona
   Euridice Axen: Marta
   Claudio Camilli: Marcello
   Benedetta Cimatti: Silvia
   Roberto Scotto Pagliara: Riccardo



Giovane economista rampante, Claudio ha un importante appuntamento di lavoro. Peccato che prima di giungere al piano, l’ascensore del suo ufficio decida di bloccarsi. Intrappolato in quella scatola, Claudio capirà ben presto che quello è l’ultimo dei suoi problemi: una misteriosa epidemia ha infatti colpito l’intera città di Roma e, da lì a poco, un’orda di zombie scatenerà il panico in ogni angolo della capitale compreso il suo ufficio.



Claudio is a businessman at the top of his game. On his way to an important meeting, his elevator gets stuck. What starts out as a mere technical difficulty turns out to be a catastrophe of..





General
Unique ID                                : 319484031599897880189420339789142739623 (0xF05A62E5F1E260FACB6DD1F93CA4CAA7)
Complete name                            : The End - L'inferno fuori (2017).720p.ita.sub.eng-MIRCrewThe End - L'inferno fuori (2017)  (2017).720p.ita.sub.eng-MIRCrew.mkv
Format                                   : Matroska
Format version                           : Version 2
File size                                : 1.47 GiB
Duration                                 : 1h 38mn
Overall bit rate                         : 2 150 Kbps
Movie name                               : MIRCrew
Encoded date                             : UTC 2019-03-03 22:54:54
Writing application                      : Lavf54.63.100
Writing library                          : Lavf54.63.100
ARTIST                                   : MIRCrew
COMMENT                                  : mircrew-releases

Video
ID                                       : 1
Format                                   : AVC
Format/Info                              : Advanced Video Codec
Format profile                           : [email protected]
Format settings, CABAC                   : Yes
Format settings, ReFrames                : 2 frames
Codec ID                                 : V_MPEG4/ISO/AVC
Duration                                 : 1h 38mn
Bit rate                                 : 1 900 Kbps
Width                                    : 1 280 pixels
Height                                   : 528 pixels
Display aspect ratio                     : 2.40:1
Frame rate mode                          : Variable
Frame rate                               : 25.000 fps
Color space                              : YUV
Chroma subsampling                       : 4:2:0
Bit depth                                : 8 bits
Scan type                                : Progressive
Bits/(Pixel*Frame)                       : 0.112
Stream size                              : 1.27 GiB (86%)
Writing library                          : x264 core 130 r2273
Encoding settings                        : cabac=1 / ref=2 / deblock=1:0:0 / analyse=0x1:0x131 / me=hex / subme=7 / psy=1 / psy_rd=1.00:0.00 / mixed_ref=0 / me_range=16 / chroma_me=1 / trellis=1 / 8x8dct=0 / cqm=0 / deadzone=21,11 / fast_pskip=1 / chroma_qp_offset=-2 / threads=6 / lookahead_threads=1 / sliced_threads=0 / nr=0 / decimate=1 / interlaced=0 / bluray_compat=0 / constrained_intra=0 / bframes=3 / b_pyramid=0 / b_adapt=1 / b_bias=0 / direct=3 / weightb=1 / open_gop=0 / weightp=2 / keyint=250 / keyint_min=25 / scenecut=40 / intra_refresh=0 / rc_lookahead=40 / rc=abr / mbtree=1 / bitrate=1900 / ratetol=1.0 / qcomp=0.60 / qpmin=10 / qpmax=69 / qpstep=4 / vbv_maxrate=24000 / vbv_bufsize=24000 / nal_hrd=none / ip_ratio=1.40 / aq=1:1.00
Language                                 : Italian
Default                                  : Yes
Forced                                   : No
DURATION                                 : 01:38:03.120000000
NUMBER_OF_FRAMES                         : 147078
NUMBER_OF_BYTES                          : 3333907236
_STATISTICS_WRITING_APP                  : mkvmerge v21.0.0 ('Tardigrades Will Inherit The Earth&#39 64-bit
_STATISTICS_WRITING_DATE_UTC             : 2018-09-03 06:30:45
_STATISTICS_TAGS                         : BPS DURATION NUMBER_OF_FRAMES NUMBER_OF_BYTES

Audio
ID                                       : 2
Format                                   : AC-3
Format/Info                              : Audio Coding 3
Mode extension                           : CM (complete main)
Codec ID                                 : A_AC3
Duration                                 : 1h 38mn
Bit rate mode                            : Constant
Bit rate                                 : 256 Kbps
Channel(s)                               : 2 channels
Channel positions                        : Front: L R
Sampling rate                            : 48.0 KHz
Bit depth                                : 16 bits
Compression mode                         : Lossy
Delay relative to video                  : 1mn 5s
Stream size                              : 180 MiB (12%)
Language                                 : Italian
Default                                  : Yes
Forced                                   : No
DURATION                                 : 01:38:03.168000000
NUMBER_OF_FRAMES                         : 183849
NUMBER_OF_BYTES                          : 164728704
_STATISTICS_WRITING_APP                  : mkvmerge v21.0.0 ('Tardigrades Will Inherit The Earth&#39 64-bit
_STATISTICS_WRITING_DATE_UTC             : 2018-09-03 06:30:45
_STATISTICS_TAGS                         : BPS DURATION NUMBER_OF_FRAMES NUMBER_OF_BYTES


Info: Per scaricare devi usare un client come uTorrent o Transmission
AnnounceURL
udp://tracker.coppersurfer.tk:6969/announce
Hash 2cef7e7e28ea3cddd72fcfbe00ba60bb80c46236
Peers seeds: 80 , leech: 15
Size 1.47 GB
Completato 1178x
Aggiunto 05.03.19 - 17:03:13
Uploader   robbyrs
Votazione (Voti: 0)


Condividi questo bittorrent:


html/blog:


bbcode/forum:




Aggiungi Commento