Loading...
 * Dettagli Torrent   globale  | Commenti (0) 


- Il nome della rosa - The Name of the Rose - Stagione 1 epi 1-2.H264.italian.Ac3-MIRCrew -


Download via torrent:
Categoria bittorrent SerieTv
Descrizione
Il nome della rosa - The Name of the Rose - Stagione 1 epi 1-2.H264.italian.Ac3-MIRCrew



NO FOUND ONLY ORIGINAL RELEASE

Il nome della rosa (The Name of the Rose) è una miniserie televisiva italo-tedesca del 2019, creata da Giacomo Battiato, Andrea Porporati e Nigel Williams ed è diretta dallo stesso Giacomo Battiato. La serie è un adattamento televisivo dell'omonimo romanzo di Umberto Eco del 1980. La serie è una co-produzione tra Rai Fiction, Tele München, 11 Marzo Film e Palomar.

Il nome della rosa  - The Name of the Rose  Stagione 1 epi 1-2










Titolo originale The Name of the Rose
Paese Italia, Germania
Anno 2019
Formato miniserie TV
Genere drammatico, storico, thriller
Puntate 8
Durata 400 min (totale)
Lingua originale inglese
Rapporto 16:9
Ideatore Giacomo Battiato, Andrea Porporati, Nigel Williams
Regia Giacomo Battiato
Soggetto dal romanzo di Umberto Eco
Sceneggiatura Andrea Porporati, Nigel Williams, Giacomo Battiato,



   John Turturro: Guglielmo da Baskerville
   Damian Hardung: Adso da Melk
   Rupert Everett: Bernardo Gui
   Michael Emerson: Abbone da Fossanova
   Sebastian Koch: Barone di Neuenberg
   Antonia Fotaras: ragazza occitana dai capelli rossi
   James Cosmo: Jorge da Burgos
   Richard Sammel: Malachia da Hildesheim
   Fabrizio Bentivoglio: Remigio da Varagine
   Greta Scarano: Anna/Margherita
   Stefano Fresi: Salvatore
   Roberto Herlitzka: Alinardo da Grottaferrata
   Alessio Boni: Dolcino
   Piotr Adamczyk: Severino da Sant'Emmerano
   Corrado Invernizzi: Michele da Cesena
   Guglielmo Favilla: Venanzio da Salvemec
   Maurizio Lombardi: Berengario da Arundel
   Benjamin Stender: Bencio da Uppsala
   Leonardo Pazzagli: Adelmo da Otranto
   Fausto Maria Sciarappa: Nicola da Morimondo
   Tchéky Karyo: papa Giovanni XXII



Italia, 1327. Il frate francescano Guglielmo da Baskerville, seguito dal giovane novizio benedettino Adso da Melk, raggiunge un'isolata abbazia benedettina per partecipare ad una disputa sulla povertà tra rappresentanti dell'Ordine francescano e del papato avignonese. All'arrivo nell'abbazia i due si trovano coinvolti in una catena di morti misteriose.



A friar investigates a series of mysterious deaths at an abbey. Television adaptation of Umberto Eco's novel 'The Name of the Rose'.







General
Unique ID                                : 3443501022441497165132244110229987237 (0x29731B556CE227D36B0FFC4EEF95FA5)
Complete name                            : Il nome della rosa - Stagione 1 epi 01-02.ita-MIRCrew.mkv
Format                                   : Matroska
Format version                           : Version 2
File size                                : 1 012 MiB
Duration                                 : 1h 34mn
Overall bit rate                         : 1 492 Kbps
Encoded date                             : UTC 2019-03-05T10:07:48Z
Writing application                      : HandBrake 0.10.5 2016021100
Writing library                          : Lavf55.12.0

Video
ID                                       : 1
Format                                   : AVC
Format/Info                              : Advanced Video Codec
Format profile                           : [email protected]
Format settings, CABAC                   : Yes
Format settings, ReFrames                : 4 frames
Codec ID                                 : V_MPEG4/ISO/AVC
Duration                                 : 1h 34mn
Bit rate                                 : 1 300 Kbps
Width                                    : 720 pixels
Height                                   : 404 pixels
Display aspect ratio                     : 16:9
Frame rate mode                          : Variable
Frame rate                               : 25.000 fps
Color space                              : YUV
Chroma subsampling                       : 4:2:0
Bit depth                                : 8 bits
Scan type                                : Progressive
Bits/(Pixel*Frame)                       : 0.179
Stream size                              : 861 MiB (85%)
Writing library                          : x264 core 142 r2479 dd79a61
Encoding settings                        : cabac=1 / ref=3 / deblock=1:0:0 / analyse=0x3:0x113 / me=hex / subme=7 / psy=1 / psy_rd=1.00:0.00 / mixed_ref=1 / me_range=16 / chroma_me=1 / trellis=1 / 8x8dct=1 / cqm=0 / deadzone=21,11 / fast_pskip=1 / chroma_qp_offset=-2 / threads=3 / lookahead_threads=1 / sliced_threads=0 / nr=0 / decimate=1 / interlaced=0 / bluray_compat=0 / constrained_intra=0 / bframes=3 / b_pyramid=2 / b_adapt=1 / b_bias=0 / direct=1 / weightb=1 / open_gop=0 / weightp=2 / keyint=250 / keyint_min=25 / scenecut=40 / intra_refresh=0 / rc_lookahead=40 / rc=abr / mbtree=1 / bitrate=1300 / ratetol=1.0 / qcomp=0.60 / qpmin=0 / qpmax=69 / qpstep=4 / vbv_maxrate=62500 / vbv_bufsize=78125 / nal_hrd=none / filler=0 / ip_ratio=1.40 / aq=1:1.00
Default                                  : Yes
Forced                                   : No
Color primaries                          : BT.709-5, BT.1361, IEC 61966-2-4, SMPTE RP177
Transfer characteristics                 : BT.709-5, BT.1361
Matrix coefficients                      : BT.709-5, BT.1361, IEC 61966-2-4 709, SMPTE RP177

Audio
ID                                       : 2
Format                                   : AC-3
Format/Info                              : Audio Coding 3
Mode extension                           : CM (complete main)
Codec ID                                 : A_AC3
Duration                                 : 1h 34mn
Bit rate mode                            : Constant
Bit rate                                 : 192 Kbps
Channel(s)                               : 2 channels
Channel positions                        : Front: L R
Sampling rate                            : 48.0 KHz
Bit depth                                : 16 bits
Compression mode                         : Lossy
Delay relative to video                  : 1mn 5s
Stream size                              : 130 MiB (13%)
Title                                    : Stereo
Language                                 : Italian
Default                                  : Yes
Forced                                   : No



Info: Per scaricare devi usare un client come uTorrent o Transmission
AnnounceURL
udp://tracker.coppersurfer.tk:6969/announce
Hash fbf91b12e528f3f612d572afa6e4286127b99a9f
Peers seeds: 69 , leech: 3
Size 0.99 GB
Completato 1006x
Aggiunto 05.03.19 - 15:03:57
Uploader   robbyrs
Votazione (Voti: 0)


Condividi questo bittorrent:


html/blog:


bbcode/forum:




Aggiungi Commento