Loading...
 * Dettagli Torrent   globale  | Commenti (0) 


- The Great Wall (2016).720p.H264.italian.english.Ac3-5.1.sub.ita.eng-MIRCrew -


Download via torrent:
Categoria bittorrent BDRip
Descrizione
Visitate mircrew-releases


The Great Wall (2016).720p.H264.italian.english.Ac3-5.1.sub.ita.eng-MIRCrew


NO FOUND ONLY ORIGINAL RELEASE

My release is always in double track audio italian and Original audio
for select it use VLC or dvd player home
not use wmp

The Great Wall (2016)

Quality MIRCrew on HD 720p da  2,0 gb







Titolo originale The Great Wall
Lingua originale inglese, mandarino
Paese di produzione Stati Uniti d'America, Cina
Anno 2016
Durata 104 min
Genere fantastico, avventura, epico, azione
Regia Zhang Yimou
Soggetto da una storia di Max Brooks, Edward Zwick e Marshall Herskovitz
Sceneggiatura Carlo Bernard, Doug Miro, Tony Gilroy



   Matt Damon: William Garin
   Jing Tian: comandante Lin Mae
   Pedro Pascal: Pedro Tovar
   Willem Dafoe: Sir Ballard
   Andy Lau: stratega Wang
   Eddie Peng: comandante Wu
   Numan Acar: Najid
   Luhan: Peng Yong
   Hanyu Zhang: generale Shao



William Garin e Pedro Tovar sono due mercenari provenienti dall'Europa che giungono in Cina con una missione: recuperare un po' di polvere nera, una sorta di antenata della polvere da sparo, per poterla esportare nel continente europeo. I due fanno parte di un piccolo gruppo di uomini, che viene però decimato dall'assalto di una terrificante bestia sconosciuta (di cui i due conservano un arto reciso), che uccide gli altri componenti.



In ancient China, a group of European mercenaries encounters a secret army that maintains and defends the Great Wall of China against a horde of monstrous creatures.

 









General
Unique ID                                : 156419383853750108899345259888609969328 (0x75AD470BDB102E85FB16101B4D75C4B0)
Complete name                            : The great wall (2016).720p.h264.ita.eng.sub.ita.eng-MIRCrewThe great wall (2016).720p.h264.ita.eng.sub.ita.eng-MIRCrew.mkv
Format                                   : Matroska
Format version                           : Version 2
File size                                : 2.02 GiB
Duration                                 : 1h 43mn
Overall bit rate                         : 2 801 Kbps
Movie name                               : MIRCrew
Encoded date                             : UTC 2018-12-31 01:50:51
Writing application                      : Lavf54.63.100
Writing library                          : Lavf54.63.100
COMMENT                                  : mircrew-releases

Video
ID                                       : 1
Format                                   : AVC
Format/Info                              : Advanced Video Codec
Format profile                           : [email protected]
Format settings, CABAC                   : Yes
Format settings, ReFrames                : 2 frames
Codec ID                                 : V_MPEG4/ISO/AVC
Duration                                 : 1h 43mn
Bit rate                                 : 1 900 Kbps
Width                                    : 1 280 pixels
Height                                   : 528 pixels
Display aspect ratio                     : 2.40:1
Frame rate mode                          : Variable
Frame rate                               : 23.976 fps
Color space                              : YUV
Chroma subsampling                       : 4:2:0
Bit depth                                : 8 bits
Scan type                                : Progressive
Bits/(Pixel*Frame)                       : 0.117
Stream size                              : 1.33 GiB (66%)
Writing library                          : x264 core 130 r2273
Encoding settings                        : cabac=1 / ref=2 / deblock=1:-1:-1 / analyse=0x3:0x133 / me=hex / subme=7 / psy=1 / psy_rd=0.40:0.10 / mixed_ref=0 / me_range=16 / chroma_me=1 / trellis=1 / 8x8dct=1 / cqm=0 / deadzone=21,11 / fast_pskip=1 / chroma_qp_offset=-3 / threads=6 / lookahead_threads=1 / sliced_threads=0 / nr=0 / decimate=1 / interlaced=0 / bluray_compat=0 / constrained_intra=0 / bframes=3 / b_pyramid=0 / b_adapt=1 / b_bias=0 / direct=3 / weightb=1 / open_gop=0 / weightp=2 / keyint=230 / keyint_min=23 / scenecut=40 / intra_refresh=0 / rc_lookahead=40 / rc=2pass / mbtree=1 / bitrate=1900 / ratetol=1.0 / qcomp=0.60 / qpmin=10 / qpmax=69 / qpstep=4 / cplxblur=20.0 / qblur=0.5 / vbv_maxrate=24000 / vbv_bufsize=24000 / nal_hrd=none / ip_ratio=1.40 / aq=1:0.60
Language                                 : Italian
Default                                  : Yes
Forced                                   : No
DURATION                                 : 01:43:03.387000000
NUMBER_OF_FRAMES                         : 148252
NUMBER_OF_BYTES                          : 3837101202
_STATISTICS_WRITING_APP                  : mkvmerge v10.0.0 ('To Drown In You&#39 32bit
_STATISTICS_WRITING_DATE_UTC             : 2017-05-13 13:53:38
_STATISTICS_TAGS                         : BPS DURATION NUMBER_OF_FRAMES NUMBER_OF_BYTES

Audio #1
ID                                       : 2
Format                                   : AC-3
Format/Info                              : Audio Coding 3
Mode extension                           : CM (complete main)
Codec ID                                 : A_AC3
Duration                                 : 1h 43mn
Bit rate mode                            : Constant
Bit rate                                 : 448 Kbps
Channel(s)                               : 6 channels
Channel positions                        : Front: L C R, Side: L R, LFE
Sampling rate                            : 48.0 KHz
Bit depth                                : 16 bits
Compression mode                         : Lossy
Delay relative to video                  : 1mn 5s
Stream size                              : 330 MiB (16%)
Language                                 : Italian
Default                                  : Yes
Forced                                   : No
DURATION                                 : 01:43:03.264000000
NUMBER_OF_FRAMES                         : 193227
NUMBER_OF_BYTES                          : 494661120
_STATISTICS_WRITING_APP                  : mkvmerge v10.0.0 ('To Drown In You&#39 32bit
_STATISTICS_WRITING_DATE_UTC             : 2017-05-13 13:53:38
_STATISTICS_TAGS                         : BPS DURATION NUMBER_OF_FRAMES NUMBER_OF_BYTES

Audio #2
ID                                       : 3
Format                                   : AC-3
Format/Info                              : Audio Coding 3
Mode extension                           : CM (complete main)
Codec ID                                 : A_AC3
Duration                                 : 1h 43mn
Bit rate mode                            : Constant
Bit rate                                 : 448 Kbps
Channel(s)                               : 6 channels
Channel positions                        : Front: L C R, Side: L R, LFE
Sampling rate                            : 48.0 KHz
Bit depth                                : 16 bits
Compression mode                         : Lossy
Delay relative to video                  : 1mn 5s
Stream size                              : 330 MiB (16%)
Language                                 : English
Default                                  : No
Forced                                   : No
DURATION                                 : 01:43:03.360000000
NUMBER_OF_FRAMES                         : 193230
NUMBER_OF_BYTES                          : 494668800
_STATISTICS_WRITING_APP                  : mkvmerge v10.0.0 ('To Drown In You&#39 32bit
_STATISTICS_WRITING_DATE_UTC             : 2017-05-13 13:53:38
_STATISTICS_TAGS                         : BPS DURATION NUMBER_OF_FRAMES NUMBER_OF_BYTES


Info: Per scaricare devi usare un client come uTorrent o Transmission
AnnounceURL
udp://tracker.coppersurfer.tk:6969/announce
Hash c135fae3fe4a5534a73f738f5b6f69532c0f4dab
Peers seeds: 175 , leech: 45
Size 2.02 GB
Completato 1498x
Aggiunto 04.01.19 - 16:01:53
Uploader   robbyrs
Votazione (Voti: 0)


Condividi questo bittorrent:


html/blog:


bbcode/forum:




Aggiungi Commento