Loading...
 * Dettagli Torrent   globale  | Commenti (0) 


- Bleach (2018).720p.H264.italian.english.Ac3-5.1.multisub-MIRCrew -


Download via torrent:
Categoria bittorrent BDRip
Descrizione
Visitate mircrew-releases

Bleach 2018.720p.H264.italian.english.Ac3-5.1.multisub-MIRCrew


NO FOUND ONLY ORIGINAL RELEASE



My release is always in double track audio italian and Original audio
for select it use VLC or dvd player home
not use wmp

Bleach

2018


Quality MIRCrew on HD 720p da  2,0 gb







Titolo originale ???? Bur?chi
Lingua originale giapponese
Paese di produzione Giappone
Anno 2018
Genere azione, fantastico
Regia Shinsuke Sat?
Soggetto Bleach di Tite Kubo
Sceneggiatura Shinsuke Sat?



   S?ta Fukushi: Ichigo Kurosaki
   Hana Sugisaki: Rukia Kuchiki
   Erina Mano: Orihime Inoue
   Ry? Yoshizawa: Ury? Ishida
   Yu Koyanagi: Yasutora Sado
   Taichi Saotome: Renji Abarai
   Miyavi: Byakuya Kuchiki
   Seiichi Tanabe: Kisuke Urahara
   Y?suke Eguchi: Isshin Kurosaki
   Masami Nagasawa: Signora Kurosaki



Ichigo Kurosaki è un adolescente di Karakura Town che può vedere i fantasmi, un talento questo che gli permette di incontrare Rukia Kuchiki, una Shinigami (anima mietitrice) la cui missione è quella di condurre le anime dei morti dal mondo dei vivi fino alla "Soul Society" mentre combatte gli Hollow, mostruose anime perdute che possono danneggiare sia i fantasmi che gli umani.



A Japanese teenager can see ghosts and sees a cute girl fighting an evil monster. He ends up with her reaper power and she as human in his high school class. He discovers a connection between his mom's death and these monsters.  








General
Unique ID                                : 95064043705180671917657735521767224912 (0x4784AB3923CB248FF451A8BADDAB7650)
Complete name                            : Bleach 2018.720p.H264.ita.eng.multisub-MIRCrewBleach 2018.720p.H264.ita.eng.multisub-MIRCrew.mkv
Format                                   : Matroska
Format version                           : Version 4 / Version 2
File size                                : 2.10 GiB
Duration                                 : 1h 48mn
Overall bit rate                         : 2 766 Kbps
Movie name                               : MIRCrew
Encoded date                             : UTC 2019-01-02 15:36:46
Writing application                      : mkvmerge v26.0.0 ('In The Game&#39 64-bit
Writing library                          : Lavf54.63.100
COMMENT                                  : mircrew-releases

Video
ID                                       : 1
Format                                   : AVC
Format/Info                              : Advanced Video Codec
Format profile                           : [email protected]
Format settings, CABAC                   : Yes
Format settings, ReFrames                : 2 frames
Codec ID                                 : V_MPEG4/ISO/AVC
Duration                                 : 1h 48mn
Bit rate                                 : 1 900 Kbps
Width                                    : 1 280 pixels
Height                                   : 720 pixels
Display aspect ratio                     : 16:9
Frame rate mode                          : Variable
Frame rate                               : 23.976 fps
Color space                              : YUV
Chroma subsampling                       : 4:2:0
Bit depth                                : 8 bits
Scan type                                : Progressive
Bits/(Pixel*Frame)                       : 0.086
Stream size                              : 1.38 GiB (66%)
Title                                    : MIRCrew
Writing library                          : x264 core 130 r2273
Encoding settings                        : cabac=1 / ref=2 / deblock=1:0:0 / analyse=0x1:0x131 / me=hex / subme=7 / psy=1 / psy_rd=1.00:0.00 / mixed_ref=0 / me_range=16 / chroma_me=1 / trellis=1 / 8x8dct=0 / cqm=0 / deadzone=21,11 / fast_pskip=1 / chroma_qp_offset=-2 / threads=6 / lookahead_threads=1 / sliced_threads=0 / nr=0 / decimate=1 / interlaced=0 / bluray_compat=0 / constrained_intra=0 / bframes=3 / b_pyramid=0 / b_adapt=1 / b_bias=0 / direct=3 / weightb=1 / open_gop=0 / weightp=2 / keyint=230 / keyint_min=23 / scenecut=40 / intra_refresh=0 / rc_lookahead=40 / rc=abr / mbtree=1 / bitrate=1900 / ratetol=1.0 / qcomp=0.60 / qpmin=10 / qpmax=69 / qpstep=4 / vbv_maxrate=24000 / vbv_bufsize=24000 / nal_hrd=none / ip_ratio=1.40 / aq=1:1.00
Default                                  : Yes
Forced                                   : No
DURATION                                 : 01:48:42.725000000
NUMBER_OF_FRAMES                         : 156389
NUMBER_OF_BYTES                          : 1522773264
_STATISTICS_WRITING_APP                  : mkvmerge v26.0.0 ('In The Game&#39 64-bit
_STATISTICS_WRITING_DATE_UTC             : 2019-01-02 17:33:01
_STATISTICS_TAGS                         : BPS DURATION NUMBER_OF_FRAMES NUMBER_OF_BYTES

Audio #1
ID                                       : 2
Format                                   : AC-3
Format/Info                              : Audio Coding 3
Mode extension                           : CM (complete main)
Codec ID                                 : A_AC3
Duration                                 : 1h 48mn
Bit rate mode                            : Constant
Bit rate                                 : 448 Kbps
Channel(s)                               : 6 channels
Channel positions                        : Front: L C R, Side: L R, LFE
Sampling rate                            : 48.0 KHz
Bit depth                                : 16 bits
Compression mode                         : Lossy
Delay relative to video                  : -5ms
Stream size                              : 348 MiB (16%)
Title                                    : Ita Ac3 5.1
Language                                 : Italian
Default                                  : Yes
Forced                                   : No
DURATION                                 : 01:48:43.040000000
NUMBER_OF_FRAMES                         : 203845
NUMBER_OF_BYTES                          : 365290240
_STATISTICS_WRITING_APP                  : mkvmerge v26.0.0 ('In The Game&#39 64-bit
_STATISTICS_WRITING_DATE_UTC             : 2019-01-02 17:33:01
_STATISTICS_TAGS                         : BPS DURATION NUMBER_OF_FRAMES NUMBER_OF_BYTES

Audio #2
ID                                       : 3
Format                                   : AC-3
Format/Info                              : Audio Coding 3
Mode extension                           : CM (complete main)
Codec ID                                 : A_AC3
Duration                                 : 1h 48mn
Bit rate mode                            : Constant
Bit rate                                 : 448 Kbps
Channel(s)                               : 6 channels
Channel positions                        : Front: L C R, Side: L R, LFE
Sampling rate                            : 48.0 KHz
Bit depth                                : 16 bits
Compression mode                         : Lossy
Delay relative to video                  : -5ms
Stream size                              : 348 MiB (16%)
Title                                    : Eng Ac3
Language                                 : English
Default                                  : No
Forced                                   : No
DURATION                                 : 01:48:43.040000000
NUMBER_OF_FRAMES                         : 203845
NUMBER_OF_BYTES                          : 365290240
_STATISTICS_WRITING_APP                  : mkvmerge v26.0.0 ('In The Game&#39 64-bit
_STATISTICS_WRITING_DATE_UTC             : 2019-01-02 17:33:01
_STATISTICS_TAGS                         : BPS DURATION NUMBER_OF_FRAMES NUMBER_OF_BYTES

Info: Per scaricare devi usare un client come uTorrent o Transmission
AnnounceURL
udp://tracker.coppersurfer.tk:6969/announce
Hash 9285690dae786dcaa4ea86442be867bbb3c0eba8
Peers seeds: 195 , leech: 88
Size 2.10 GB
Completato 2538x
Aggiunto 04.01.19 - 11:01:23
Uploader   robbyrs
Votazione (Voti: 0)


Condividi questo bittorrent:


html/blog:


bbcode/forum:




Aggiungi Commento