Loading...
 * Dettagli Torrent   globale  | Commenti (0) 


- Vasco Rossi - Liberi Liberi (Remastered 2017) (Flac, CueRipper, Cue, Logs) -


Download via torrent:
Categoria bittorrent Musica
Descrizione
[SIZE=12]Vasco Rossi - Liberi Liberi (Remastered 2017)[/SIZE]



Titolo: Vasco Rossi - Liberi Liberi (Remastered 2017)
Anno: 1989
Direttore: Vasco Rossi
Genere: rock

Tracklist

01 - Domenica lunatica
02 - Ormai è tardi
03 - ...Muoviti!
04 - Vivere senza te
05 - Tango...
06 - Liberi...liberi
07 - Dillo alla Luna
08 - "Stasera!"

Log

QUOTE:

CUERipper v2.1.6 Copyright © 2008-13 Grigory Chudov

EAC extraction logfile from 19. September 2018, 18:28

Vasco Rossi / Liberi liberi

Used drive  : MATSHITA BD-MLT UJ260AF   Adapter: 1  ID: 0

Read mode               : Secure
Utilize accurate stream : Yes
Defeat audio cache      : Yes
Make use of C2 pointers : No

Read offset correction                      : 103
Overread into Lead-In and Lead-Out          : No
Fill up missing offset samples with silence : Yes
Delete leading and trailing silent blocks   : No
Null samples used in CRC calculations       : Yes
Used interface                              : Native Win32 interface for Win NT & 2000

Used output format : Internal WAV Routines
Sample format      : 44.100 Hz; 16 Bit; Stereo


TOC of the extracted CD

     Track |   Start  |  Length  | Start sector | End sector
    ---------------------------------------------------------
        1  |  0:00.00 |  3:52.41 |         0    |    17440  
        2  |  3:52.41 |  3:24.51 |     17441    |    32791  
        3  |  7:17.17 |  5:04.39 |     32792    |    55630  
        4  | 12:21.56 |  4:47.42 |     55631    |    77197  
        5  | 17:09.23 |  3:08.16 |     77198    |    91313  
        6  | 20:17.39 |  6:14.50 |     91314    |   119413  
        7  | 26:32.14 |  4:55.22 |    119414    |   141560  
        8  | 31:27.36 |  5:02.53 |    141561    |   164263  


Range status and errors

Selected range

     Filename C:UsersUserDesktopCDImage.wav

     Peak level 98.8 %
     Range quality 100.0 %
     Test CRC 933A5555
     Copy CRC 933A5555
     Copy OK

No errors occurred


AccurateRip summary

Track  1  not present in database
Track  2  not present in database
Track  3  not present in database
Track  4  not present in database
Track  5  not present in database
Track  6  not present in database
Track  7  not present in database
Track  8  not present in database

None of the tracks are present in the AccurateRip database

End of status report

Info: Per scaricare devi usare un client come uTorrent o Transmission
AnnounceURL
http://tracker.tntvillage.scambioetico.org:2710/announce
Hash 555f330ec48e89775e7627a1646b5cf3a7167003
Peers seeds: 1 , leech: 0
Size 260.32 MB
Completato 0x
Aggiunto 10.11.18 - 12:11:26
Uploader   Yuryna
Votazione (Voti: 1)


Condividi questo bittorrent:


html/blog:


bbcode/forum:




Aggiungi Commento