Loading...
 * Dettagli Torrent   globale  | Commenti (0) 


- Designated Survivor S02e07, [1080p - H264 - Ita Eng Ac3 5.1 - MultiSub] - WebRip di TheJohnCena -


Download via torrent:
Categoria bittorrent SerieTv
Descrizione


Designated Survivor



.: Scheda della serie :.

Anno: 2016
Genere: Drama

Cast: Kiefer Sutherland, Natascha McElhone, Maggie Q...

.: Trama :.
[/align]

Un uomo diventa improvvisamente Presidente degli Stati Uniti e deve far fronte all'attacco terroristico che ha ucciso tutti i membri di Congresso e Gabinetto.

[align=center].: ScreenShot :.



.: Scheda tecnica :.[spoiler]

Format                      : Matroska
Format version              : Version 4 / Version 2
File size                   : 1.10 GiB
Duration                    : 42 min 33 s
Overall bit rate mode       : Variable
Overall bit rate            : 3 717 kb/s
Encoded date                : UTC 2017-11-28 20:18:59
Writing application         : mkvmerge v18.0.0 ('Apricity') 64-bit
Writing library             : libebml v1.3.5 + libmatroska v1.4.8

Video
ID                          : 1
Format                      : AVC
Format/Info                 : Advanced Video Codec
Format profile              : [email protected]
Format settings, CABAC      : Yes
Format settings, ReFrames   : 3 frames
Codec ID                    : V_MPEG4/ISO/AVC
Duration                    : 41 min 52 s
Bit rate mode               : Variable
Bit rate                    : 3 010 kb/s
Maximum bit rate            : 4 515 kb/s
Width                       : 1 920 pixels
Height                      : 1 080 pixels
Display aspect ratio        : 16:9
Frame rate mode             : Constant
Frame rate                  : 23.976 (24000/1001) FPS
Color space                 : YUV
Chroma subsampling          : 4:2:0
Bit depth                   : 8 bits
Scan type                   : Progressive
Bits/(Pixel*Frame)          : 0.061
Stream size                 : 899 MiB (79%)
Writing library             : x264 core 148
Encoding settings           : cabac=1 / ref=3 / deblock=1:0:0 / analyse=0x1:0x111 / me=umh / subme=10 / psy=1 / psy_rd=1.00:0.00 / mixed_ref=1 / me_range=24 / chroma_me=1 / trellis=2 / 8x8dct=0 / cqm=0 / deadzone=21,11 / fast_pskip=1 / chroma_qp_offset=-2 / threads=8 / lookahead_threads=1 / sliced_threads=0 / nr=0 / decimate=1 / interlaced=0 / bluray_compat=0 / stitchable=1 / constrained_intra=0 / bframes=2 / b_pyramid=0 / b_adapt=2 / b_bias=0 / direct=3 / weightb=1 / open_gop=0 / weightp=2 / keyint=48 / keyint_min=25 / scenecut=0 / intra_refresh=0 / rc_lookahead=48 / rc=2pass / mbtree=1 / bitrate=3010 / ratetol=1.0 / qcomp=0.50 / qpmin=6 / qpmax=51 / qpstep=4 / cplxblur=20.0 / qblur=0.5 / vbv_maxrate=4515 / vbv_bufsize=6020 / nal_hrd=vbr / filler=0 / ip_ratio=1.40 / aq=1:1.00
Default                     : Yes
Forced                      : No

Audio #1
ID                          : 2
Format                      : AC-3
Format/Info                 : Audio Coding 3
Format settings, Endianness : Big
Codec ID                    : A_AC3
Duration                    : 42 min 33 s
Bit rate mode               : Constant
Bit rate                    : 384 kb/s
Channel(s)                  : 6 channels
Channel positions           : Front: L C R, Side: L R, LFE
Sampling rate               : 48.0 kHz
Frame rate                  : 31.250 FPS (1536 spf)
Bit depth                   : 16 bits
Compression mode            : Lossy
Stream size                 : 117 MiB (10%)
Language                    : Italian
Service kind                : Complete Main
Default                     : Yes
Forced                      : No

Audio #2
ID                          : 3
Format                      : AC-3
Format/Info                 : Audio Coding 3
Format settings, Endianness : Big
Codec ID                    : A_AC3
Duration                    : 41 min 52 s
Bit rate mode               : Constant
Bit rate                    : 384 kb/s
Channel(s)                  : 6 channels
Channel positions           : Front: L C R, Side: L R, LFE
Sampling rate               : 48.0 kHz
Frame rate                  : 31.250 FPS (1536 spf)
Bit depth                   : 16 bits
Compression mode            : Lossy
Stream size                 : 115 MiB (10%)
Language                    : English
Service kind                : Complete Main
Default                     : No
Forced                      : No

Text #1
ID                          : 4
Format                      : UTF-8
Codec ID                    : S_TEXT/UTF8
Codec ID/Info               : UTF-8 Plain Text
Duration                    : 40 min 54 s
Bit rate                    : 113 b/s
Count of elements           : 833
Stream size                 : 33.9 KiB (0%)
Language                    : English
Default                     : No
Forced                      : No

Text #2
ID                          : 5
Format                      : UTF-8
Codec ID                    : S_TEXT/UTF8
Codec ID/Info               : UTF-8 Plain Text
Duration                    : 41 min 32 s
Bit rate                    : 82 b/s
Count of elements           : 669
Stream size                 : 25.2 KiB (0%)
Language                    : Dutch
Default                     : No
Forced                      : No

Text #3
ID                          : 6
Format                      : UTF-8
Codec ID                    : S_TEXT/UTF8
Codec ID/Info               : UTF-8 Plain Text
Duration                    : 41 min 32 s
Bit rate                    : 0 b/s
Count of elements           : 4
Stream size                 : 210 Bytes (0%)
Language                    : Italian
Default                     : No
Forced                      : Yes

Text #4
ID                          : 7
Format                      : UTF-8
Codec ID                    : S_TEXT/UTF8
Codec ID/Info               : UTF-8 Plain Text
Duration                    : 41 min 32 s
Bit rate                    : 91 b/s
Count of elements           : 743
Stream size                 : 27.7 KiB (0%)
Language                    : Italian
Default                     : No
Forced                      : No

[/spoiler]

.: Note :.

Orario di seed e Banda disponibile:
2MB/s H24 fino a 15 completi o esaurimento disco

Serie in antemprima nazionale, rip da NF IT
Info: Per scaricare devi usare un client come uTorrent o Transmission
AnnounceURL
http://tracker.tntvillage.scambioetico.org:2710/announce
Hash 6a2bcfb3ad85c986af2505d733a9aa6959b9fe1f
Peers seeds: 1 , leech: 0
Size 1.10 GB
Completato 0x
Aggiunto 28.11.17 - 22:11:58
Uploader   ppb1
Votazione (Voti: 0)


Condividi questo bittorrent:


html/blog:


bbcode/forum:




Aggiungi Commento