Loading...
 * Dettagli Torrent   globale  | Commenti (0) 


- Lost S03e01-23, [1080p - H264 - Ita Eng Ac3 5.1 - SoftSub Ita Eng] Web-Rip di TheJohnCena (T7ST) -


Download via torrent:
Categoria bittorrent SerieTv
Descrizione




Lost



.: Scheda della serie :.

Anno: 200
Genere: Action, Drama, Adventure
Regia: J. J. Abrams, Damon Lindelof e Jeffrey Lieber

Cast: Matthew Fox, Terry O'Quinn, Evangeline Lilly ...

.: Trama :.
[/align]

48 persone sopravvivono ad un tremendo disastro aereo e si ritrovano dispersi su di un'isola dell'Oceano Pacifico che sembra completamente disabitata. Ognuno di loro ha una sua storia, ognuno di loro nasconde dei segreti. Ma tutti quanti, se vogliono continuare a vivere, debbono collaborare, superare le avversità e le divisioni personali e sperare nel soccorso. Che potrebbe non arrivare mai. La banda di amici, familiari, nemici e stranieri lotta contro l'inclemenza del tempo ed il terreno scosceso. E scopre che anche l'isola nasconde dei segreti, una minaccia incombente, l'urlo di creature misteriose che popolano la giungla e che seminano il panico ed il terrore fra i sopravvissuti.

[align=center].: ScreenShot :.



.: Scheda tecnica :.[spoiler]

Format                      : Matroska
Format version              : Version 4 / Version 2
File size                   : 2.39 GiB
Duration                    : 42 min 57 s
Overall bit rate            : 7 965 kb/s
Movie name                  : Lost - S03E01 - Storia di due città [A Tale of Two Cities] - WEB-RIP 1080p di TheJohnCena [T7ST]
Encoded date                : UTC 2017-11-07 12:58:15
Writing application         : mkvmerge v16.0.0 ('Protest') 64-bit
Writing library             : libebml v1.3.5 + libmatroska v1.4.8 / Lavf57.72.101
Cover                       : Yes
Attachments                 : Cover Art

Video
ID                          : 1
Format                      : AVC
Format/Info                 : Advanced Video Codec
Format profile              : [email protected]
Format settings, CABAC      : Yes
Format settings, ReFrames   : 1 frame
Codec ID                    : V_MPEG4/ISO/AVC
Duration                    : 42 min 56 s
Bit rate                    : 7 196 kb/s
Width                       : 1 920 pixels
Height                      : 1 080 pixels
Display aspect ratio        : 16:9
Frame rate mode             : Constant
Frame rate                  : 23.976 (23976/1000) FPS
Original frame rate         : 23.976 (24000/1001) FPS
Color space                 : YUV
Chroma subsampling          : 4:2:0
Bit depth                   : 8 bits
Scan type                   : Progressive
Bits/(Pixel*Frame)          : 0.145
Stream size                 : 2.16 GiB (90%)
Title                       : Lost - S03E01 - Storia di due città [A Tale of Two Cities] - WEB-RIP 1080p di TheJohnCena [T7ST]
Writing library             : Lavc57.96.101 h264_nvenc
Default                     : Yes
Forced                      : No

Audio #1
ID                          : 2
Format                      : AC-3
Format/Info                 : Audio Coding 3
Format settings, Endianness : Big
Codec ID                    : A_AC3
Duration                    : 42 min 57 s
Bit rate mode               : Constant
Bit rate                    : 384 kb/s
Channel(s)                  : 6 channels
Channel positions           : Front: L C R, Side: L R, LFE
Sampling rate               : 48.0 kHz
Frame rate                  : 31.250 FPS (1536 spf)
Bit depth                   : 16 bits
Compression mode            : Lossy
Stream size                 : 118 MiB (5%)
Language                    : Italian
Service kind                : Complete Main
Default                     : Yes
Forced                      : No

Audio #2
ID                          : 3
Format                      : AC-3
Format/Info                 : Audio Coding 3
Format settings, Endianness : Big
Codec ID                    : A_AC3
Duration                    : 42 min 57 s
Bit rate mode               : Constant
Bit rate                    : 384 kb/s
Channel(s)                  : 6 channels
Channel positions           : Front: L C R, Side: L R, LFE
Sampling rate               : 48.0 kHz
Frame rate                  : 31.250 FPS (1536 spf)
Bit depth                   : 16 bits
Compression mode            : Lossy
Stream size                 : 118 MiB (5%)
Language                    : English
Service kind                : Complete Main
Default                     : No
Forced                      : No

Text #1
ID                          : 4
Format                      : UTF-8
Codec ID                    : S_TEXT/UTF8
Codec ID/Info               : UTF-8 Plain Text
Duration                    : 1 s 752 ms
Bit rate                    : 63 b/s
Count of elements           : 1
Stream size                 : 14.0 Bytes (0%)
Title                       : Forced
Language                    : Italian
Default                     : No
Forced                      : Yes

Text #2
ID                          : 5
Format                      : UTF-8
Codec ID                    : S_TEXT/UTF8
Codec ID/Info               : UTF-8 Plain Text
Duration                    : 41 min 47 s
Bit rate                    : 33 b/s
Count of elements           : 319
Stream size                 : 10.4 KiB (0%)
Language                    : Italian
Default                     : No
Forced                      : No

Text #3
ID                          : 6
Format                      : UTF-8
Codec ID                    : S_TEXT/UTF8
Codec ID/Info               : UTF-8 Plain Text
Duration                    : 41 min 49 s
Bit rate                    : 45 b/s
Count of elements           : 527
Stream size                 : 13.9 KiB (0%)
Language                    : English
Default                     : No
Forced                      : No

[/spoiler]

.: Note :.

Orario di seed e Banda disponibile:
2MB/s H24 fino a 10 completi o esaurimento disco

Per questa release cito Richard Benson, GRAZIEEE GIANNIIIIII!

In realtà non c'è nessun Gianni ma volevo citare R.B.
Info: Per scaricare devi usare un client come uTorrent o Transmission
AnnounceURL
http://tracker.tntvillage.scambioetico.org:2710/announce
Hash 9b7884e80f9896d645999360d2513393014a7371
Peers seeds: 1 , leech: 3
Size 60.64 GB
Completato 0x
Aggiunto 07.11.17 - 16:11:08
Uploader   ppb1
Votazione (Voti: 0)


Condividi questo bittorrent:


html/blog:


bbcode/forum:




Aggiungi Commento